Batman Ninja (2018)

PG-13 | 1h 25min | Animation, Action | 24 April 2018 (USA)

Batman, along with a number of his allies and adversaries, finds himself transplanted from modern Gotham City to feudal Japan.

Watch trailer

Media information

General
Format : Matroska
Format version : Version 4 / Version 2
File size : 663 MiB
Duration : 1 h 25 min
Overall bit rate : 1 088 kb/s
Movie name : Batman.Ninja.2018.720p.BrRip.2CH.x265.HEVC
Encoded date : UTC 2018-04-27 11:10:29
Writing application : mkvmerge v22.0.0 (‘At The End Of The World’) 32-bit
Writing library : libebml v1.3.5 + libmatroska v1.4.8

Video
ID : 1
Format : HEVC
Format/Info : High Efficiency Video Coding
Format profile : [email protected]@Main
Codec ID : V_MPEGH/ISO/HEVC
Duration : 1 h 25 min
Bit rate : 1 013 kb/s
Width : 1 280 pixels
Height : 720 pixels
Display aspect ratio : 16:9
Frame rate mode : Constant
Frame rate : 23.976 (24000/1001) FPS
Color space : YUV
Chroma subsampling : 4:2:0
Bit depth : 8 bits
Bits/(Pixel*Frame) : 0.046
Stream size : 618 MiB (93%)
Default : Yes
Forced : No

Audio
ID : 2
Format : AAC
Format/Info : Advanced Audio Codec
Format profile : HE-AAC / LC
Format settings : Explicit
Codec ID : A_AAC-2
Duration : 1 h 25 min
Bit rate : 72.0 kb/s
Channel(s) : 2 channels
Channel positions : Front: L R
Sampling rate : 48.0 kHz / 24.0 kHz
Frame rate : 23.438 FPS (1024 SPF)
Compression mode : Lossy
Delay relative to video : 23 ms
Stream size : 44.6 MiB (7%)
Language : English
Default : Yes
Forced : No

Text
ID : 3
Format : UTF-8
Codec ID : S_TEXT/UTF8
Codec ID/Info : UTF-8 Plain Text
Duration : 1 h 24 min
Bit rate : 45 b/s
Count of elements : 880
Stream size : 28.3 KiB (0%)
Language : English
Default : Yes
Forced : No

[collapse]
Download Link(s)

Download

Direct download files get automatically deleted after a month or so. Posted on : 04/27/2018

[collapse]
Magnet Link

Magnet

Source : Batman.Ninja.2018.1080p.BluRay.x264.DTS-MT-7.16 GB

[collapse]

Media information

General
Format : Matroska
Format version : Version 4 / Version 2
File size : 494 MiB
Duration : 1 h 25 min
Overall bit rate : 810 kb/s
Movie name : Batman.Ninja.2018.720p.WEB-DL.2CH.x265.HEVC
Encoded date : UTC 2018-04-25 10:02:18
Writing application : mkvmerge v22.0.0 (‘At The End Of The World’) 32-bit
Writing library : libebml v1.3.5 + libmatroska v1.4.8

Video
ID : 1
Format : HEVC
Format/Info : High Efficiency Video Coding
Format profile : [email protected]@Main
Codec ID : V_MPEGH/ISO/HEVC
Duration : 1 h 25 min
Bit rate : 735 kb/s
Width : 1 280 pixels
Height : 720 pixels
Display aspect ratio : 16:9
Frame rate mode : Constant
Frame rate : 23.976 (24000/1001) FPS
Color space : YUV
Chroma subsampling : 4:2:0
Bit depth : 8 bits
Bits/(Pixel*Frame) : 0.033
Stream size : 448 MiB (91%)
Default : Yes
Forced : No

Audio
ID : 2
Format : AAC
Format/Info : Advanced Audio Codec
Format profile : HE-AAC / LC
Format settings : Explicit
Codec ID : A_AAC-2
Duration : 1 h 25 min
Bit rate : 73.7 kb/s
Channel(s) : 2 channels
Channel positions : Front: L R
Sampling rate : 48.0 kHz / 24.0 kHz
Frame rate : 23.438 FPS (1024 SPF)
Compression mode : Lossy
Delay relative to video : 23 ms
Stream size : 44.9 MiB (9%)
Language : English
Default : Yes
Forced : No

Text
ID : 3
Format : UTF-8
Codec ID : S_TEXT/UTF8
Codec ID/Info : UTF-8 Plain Text
Duration : 1 h 22 min
Bit rate : 46 b/s
Count of elements : 858
Stream size : 28.2 KiB (0%)
Language : English
Default : Yes
Forced : No

[collapse]
Download Link(s)

Download

Direct download files get automatically deleted after a month or so. Posted on : 04/25/2018

[collapse]
Magnet Link

Magnet

Source : Batman.Ninja.2018.720p.WEB-DL.DD5.1.H264-FGT-2.61 GB

[collapse]

Media information

General
Format : Matroska
Format version : Version 4 / Version 2
File size : 653 MiB
Duration : 1 h 25 min
Overall bit rate : 1 070 kb/s
Movie name : Batman.Ninja.2018.720p.WEB-DL.2CH.x264.AVC
Encoded date : UTC 2018-04-24 05:56:17
Writing application : mkvmerge v22.0.0 (‘At The End Of The World’) 32-bit

Video
ID : 2
Format : AVC
Format/Info : Advanced Video Codec
Format profile : [email protected]
Format settings : CABAC / 8 Ref Frames
Format settings, CABAC : Yes
Format settings, RefFrames : 8 frames
Codec ID : V_MPEG4/ISO/AVC
Duration : 1 h 25 min
Bit rate : 1 005 kb/s
Width : 1 280 pixels
Height : 720 pixels
Display aspect ratio : 16:9
Frame rate mode : Constant
Frame rate : 23.976 (24000/1001) FPS
Color space : YUV
Chroma subsampling : 4:2:0
Bit depth : 8 bits
Scan type : Progressive
Bits/(Pixel*Frame) : 0.045
Stream size : 612 MiB (94%)
Default : Yes
Forced : No
Color range : Limited
Color primaries : BT.709
Transfer characteristics : BT.709
Matrix coefficients : BT.709

Audio
ID : 1
Format : AAC
Format/Info : Advanced Audio Codec
Format profile : HE-AAC / LC
Format settings : Explicit
Codec ID : A_AAC-2
Duration : 1 h 25 min
Bit rate : 63.9 kb/s
Channel(s) : 2 channels
Channel positions : Front: L R
Sampling rate : 48.0 kHz / 24.0 kHz
Frame rate : 23.438 FPS (1024 SPF)
Compression mode : Lossy
Delay relative to video : 31 ms
Stream size : 38.9 MiB (6%)
Language : English
Default : Yes
Forced : No

Text
ID : 3
Format : UTF-8
Codec ID : S_TEXT/UTF8
Codec ID/Info : UTF-8 Plain Text
Duration : 1 h 23 min
Bit rate : 53 b/s
Count of elements : 1043
Stream size : 32.8 KiB (0%)
Default : Yes
Forced : No

[collapse]
Download Link(s)

Download

Direct download files get automatically deleted after a month or so. Posted on : 04/24/2018

[collapse]
Magnet Link

Magnet

Source : Batman.Ninja.2018.720p.WEB-DL.DD5.1.H264-FGT-2.61 GB

[collapse]

You may also like...

error: nah :p~