Condorito: The Movie (2017)

Condorito: La Película (original title)|PG | 1h 28min | Animation, Adventure, Comedy | 12 January 2018 (USA)

Condorito embarks in a hilarious adventure to save the planet and his loved ones from an evil alien.

Watch trailer

Media information

General
Format : Matroska
Format version : Version 4 / Version 2
File size : 703 MiB
Duration : 1 h 28 min
Overall bit rate : 1 107 kb/s
Movie name : Condorito.2018.720p.WEB-DL.2CH.x264.AVC
Encoded date : UTC 2018-04-06 12:00:22
Writing application : mkvmerge v22.0.0 (‘At The End Of The World’) 32-bit
Writing library : libebml v1.3.5 + libmatroska v1.4.8

Video
ID : 2
Format : AVC
Format/Info : Advanced Video Codec
Format profile : [email protected]
Format settings : CABAC / 8 Ref Frames
Format settings, CABAC : Yes
Format settings, RefFrames : 8 frames
Codec ID : V_MPEG4/ISO/AVC
Duration : 1 h 28 min
Bit rate : 1 042 kb/s
Width : 1 280 pixels
Height : 690 pixels
Display aspect ratio : 1.85:1
Frame rate mode : Constant
Frame rate : 23.976 (24000/1001) FPS
Color space : YUV
Chroma subsampling : 4:2:0
Bit depth : 8 bits
Scan type : Progressive
Bits/(Pixel*Frame) : 0.049
Stream size : 661 MiB (94%)
Writing library : x264 core 148 r2708 86b7198
Default : Yes
Forced : No
Color range : Limited
Color primaries : BT.709
Transfer characteristics : BT.709
Matrix coefficients : BT.709

Audio
ID : 1
Format : AAC
Format/Info : Advanced Audio Codec
Format profile : HE-AAC / LC
Format settings : Explicit
Codec ID : A_AAC-2
Duration : 1 h 28 min
Bit rate : 64.0 kb/s
Channel(s) : 2 channels
Channel positions : Front: L R
Sampling rate : 48.0 kHz / 24.0 kHz
Frame rate : 23.438 FPS (1024 SPF)
Compression mode : Lossy
Delay relative to video : 31 ms
Stream size : 40.6 MiB (6%)
Language : English
Default : Yes
Forced : No

[collapse]
Download Link(s)

Download

No subs are available

Direct download files get automatically deleted after a month or so. Posted on : 04/06/2018

[collapse]
Magnet Link

Magnet

Source : Condorito.The.Movie.2017.720p.WEB-DL.DD5.1.H264-FGT-2.78 GB

[collapse]

You may also like...

error: nah :p~