Genocidal Organ (2017)

TV-MA | 1h 55min | Animation, Sci-Fi | 3 February 2017 (Japan) | Gyakusatsu kikan (original title)

Set in a time when Sarajevo was obliterated by a homemade nuclear device, the story reflects a world inundated with genocide. An American man by the name of John Paul seems to be responsible for all of this and intelligence agent Clavis Shepherd treks across the wasteland of the world to find him and the eponymous “genocidal organ.”

Watch trailer

Media information

General
Format : Matroska
Format version : Version 4 / Version 2
File size : 419 MiB
Duration : 1 h 54 min
Overall bit rate : 511 kb/s
Movie name : Project_Itoh_Genocidal_Organ_720p_BDRip
Encoded date : UTC 2017-12-10 14:40:05
Writing application : mkvmerge v18.0.0 (‘Apricity’) 32-bit
Writing library : libebml v1.3.5 + libmatroska v1.4.8

Video
ID : 1
Format : HEVC
Format/Info : High Efficiency Video Coding
Format profile : [email protected]@Main
Codec ID : V_MPEGH/ISO/HEVC
Duration : 1 h 54 min
Bit rate : 378 kb/s
Width : 1 280 pixels
Height : 720 pixels
Display aspect ratio : 16:9
Frame rate mode : Variable
Frame rate : 23.976 FPS
Color space : YUV
Chroma subsampling : 4:2:0
Bit depth : 8 bits
Bits/(Pixel*Frame) : 0.017
Stream size : 310 MiB (74%)
Writing library : x265 2.5+27-0e168bdeb48b:[Linux][GCC 6.4.0][64 bit] 8bit+10bit+12bit
Language : Japanese
Default : Yes
Forced : No

Audio
ID : 2
Format : AAC
Format/Info : Advanced Audio Codec
Format profile : LC
Codec ID : A_AAC-2
Duration : 1 h 54 min
Bit rate : 132 kb/s
Channel(s) : 2 channels
Channel positions : Front: L R
Sampling rate : 48.0 kHz
Frame rate : 46.875 FPS (1024 SPF)
Compression mode : Lossy
Stream size : 107 MiB (26%)
Language : Japanese
Default : Yes
Forced : No

Text
ID : 3
Format : UTF-8
Codec ID : S_TEXT/UTF8
Codec ID/Info : UTF-8 Plain Text
Duration : 1 h 53 min
Bit rate : 55 b/s
Count of elements : 1130
Stream size : 46.2 KiB (0%)
Default : Yes
Forced : No

[collapse]
Download Link(s)

[collapse]
Magnet Link

Magnet

Source : Genocidal.Organ.2017.720p.BluRay.x264-WiKi-4.37 GB

[collapse]

Release Notes

Audio is Japanese, therefore i have no clue if the subs are correct 😉

Whatever the case, enjoy!

[collapse]

You may also like...

error: nah :p~