Lego DC Comics Super Heroes: The Flash (2018)

Not Rated | 1h 18min | Animation | Video 13 February 2018

The morning sun shines on the jewel of the Metropolis skyline, The Daily Planet building. But when The Joker decides this building needs a renovation, it’s time to sound the Trouble Alert because all bricks are about to break loose! The Justice League leaps into action but as the battle is brewing against The Joker something goes haywire with The Flash’s powers causing him to get caught in a repeating time loop and even stranger is the yellow clad Reverse Flash taunting him at every turn! It will take all of Flash’s speed, a little magic and the helping hands and paws of the Justice League’s new recruits The Atom, Krypto the Super Dog and Ace the Bat Hound to break the cycle and save Metropolis!

Watch trailer

Media information

General
Format : Matroska
Format version : Version 4 / Version 2
File size : 605 MiB
Duration : 1 h 18 min
Overall bit rate : 1 079 kb/s
Movie name : Lego.DC.Comics.Super.Heroes.The.Flash.2018.720p.WEB-DL.2CH.x264.AVC
Encoded date : UTC 2018-02-18 16:50:54
Writing application : mkvmerge v20.0.0 (‘I Am The Sun’) 32-bit
Writing library : libebml v1.3.5 + libmatroska v1.4.8

Video
ID : 3
Format : AVC
Format/Info : Advanced Video Codec
Format profile : [email protected]
Format settings : CABAC / 8 Ref Frames
Format settings, CABAC : Yes
Format settings, RefFrames : 8 frames
Codec ID : V_MPEG4/ISO/AVC
Duration : 1 h 18 min
Bit rate : 1 013 kb/s
Width : 1 280 pixels
Height : 718 pixels
Display aspect ratio : 16:9
Frame rate mode : Constant
Frame rate : 23.976 (24000/1001) FPS
Color space : YUV
Chroma subsampling : 4:2:0
Bit depth : 8 bits
Scan type : Progressive
Bits/(Pixel*Frame) : 0.046
Stream size : 568 MiB (94%)
Writing library : x264 core 148 r2708 86b7198
Default : Yes
Forced : No
Color range : Limited
Color primaries : BT.709
Transfer characteristics : BT.709
Matrix coefficients : BT.709

Audio
ID : 1
Format : AAC
Format/Info : Advanced Audio Codec
Format profile : HE-AAC / LC
Format settings : Explicit
Codec ID : A_AAC-2
Duration : 1 h 18 min
Bit rate : 64.0 kb/s
Channel(s) : 2 channels
Channel positions : Front: L R
Sampling rate : 48.0 kHz / 24.0 kHz
Frame rate : 23.438 FPS (1024 SPF)
Compression mode : Lossy
Delay relative to video : 31 ms
Stream size : 35.9 MiB (6%)
Language : English
Default : Yes
Forced : No

Text
ID : 2
Format : UTF-8
Codec ID : S_TEXT/UTF8
Codec ID/Info : UTF-8 Plain Text
Duration : 1 h 15 min
Bit rate : 75 b/s
Count of elements : 1379
Stream size : 41.7 KiB (0%)
Language : English
Default : Yes
Forced : No

[collapse]
Download Link(s)

Download

Direct download files get automatically deleted after a month or so. Posted on : 02/18/2018

[collapse]
Magnet Link

Magnet

Source : Lego.DC.Comics.Super.Heroes.The.Flash.2018.720p.WEB-DL.DD5.1.H264-FGT-2.39 GB

[collapse]

You may also like...

error: nah :p~