Olaf’s Frozen Adventure (2017)

G | 21min | Animation, Short, Adventure | 22 November 2017 (USA)

A Christmas-themed special featuring characters from Walt Disney Pictures’ 53rd full-length animated motion picture, “Frozen (2013)”.

Watch trailer

Media information

General
Format : Matroska
Format version : Version 4 / Version 2
File size : 201 MiB
Duration : 22 min 15 s
Overall bit rate : 1 262 kb/s
Movie name : Olafs.Frozen.Adventure.2017.720p.WEB-DL
Encoded date : UTC 2017-12-02 12:06:26
Writing application : mkvmerge v18.0.0 (‘Apricity’) 32-bit
Writing library : libebml v1.3.5 + libmatroska v1.4.8

Video
ID : 2
Format : AVC
Format/Info : Advanced Video Codec
Format profile : [email protected]
Format settings : CABAC / 8 Ref Frames
Format settings, CABAC : Yes
Format settings, RefFrames : 8 frames
Codec ID : V_MPEG4/ISO/AVC
Duration : 22 min 15 s
Bit rate : 1 197 kb/s
Width : 1 280 pixels
Height : 720 pixels
Display aspect ratio : 16:9
Frame rate mode : Constant
Frame rate : 24.000 FPS
Color space : YUV
Chroma subsampling : 4:2:0
Bit depth : 8 bits
Scan type : Progressive
Bits/(Pixel*Frame) : 0.054
Stream size : 191 MiB (95%)
Writing library : x264 core 148 r2708 86b7198
Default : Yes
Forced : No
Color range : Limited
Color primaries : BT.709
Transfer characteristics : BT.709
Matrix coefficients : BT.709

Audio
ID : 1
Format : AAC
Format/Info : Advanced Audio Codec
Format profile : HE-AAC / LC
Format settings : Explicit
Codec ID : A_AAC-2
Duration : 21 min 53 s
Bit rate : 64.0 kb/s
Channel(s) : 2 channels
Channel positions : Front: L R
Sampling rate : 48.0 kHz / 24.0 kHz
Frame rate : 23.438 FPS (1024 SPF)
Compression mode : Lossy
Delay relative to video : 31 ms
Stream size : 10.0 MiB (5%)
Language : English
Default : Yes
Forced : No

[collapse]
Download Link(s)

[collapse]
Magnet Link

Magnet

Source : Olafs Frozen Adventure.2017.1080p.WEB-DL.H264.AC3-EVO-874.9 MB

[collapse]

Release Notes

A short christmas themed animated motion picture.

English Subs

[collapse]

You may also like...

error: nah :p~