Tehran Taboo (2017)

1h 30min | Animation, Drama | 16 November 2017 (Germany)

In their desperate search for freedom and happiness, four young people from Tehran, Iran are forced to break the taboos of a restrictive, islamic society.

Watch trailer

Media information

General
Format : Matroska
Format version : Version 4 / Version 2
File size : 797 MiB
Duration : 1 h 36 min
Overall bit rate : 1 157 kb/s
Movie name : Tehran Taboo 2017 Persian 720p.WEB-DL.2CH.x264.AVC
Encoded date : UTC 2018-05-16 15:02:11
Writing application : mkvmerge v23.0.0 (‘The Bride Said No’) 32-bit
Writing library : libebml v1.3.6 + libmatroska v1.4.9

Video
ID : 1
Format : AVC
Format/Info : Advanced Video Codec
Format profile : [email protected]
Format settings : CABAC / 5 Ref Frames
Format settings, CABAC : Yes
Format settings, RefFrames : 5 frames
Codec ID : V_MPEG4/ISO/AVC
Duration : 1 h 36 min
Bit rate : 1 026 kb/s
Width : 1 280 pixels
Height : 528 pixels
Display aspect ratio : 2.40:1
Frame rate mode : Constant
Frame rate : 24.000 FPS
Color space : YUV
Chroma subsampling : 4:2:0
Bit depth : 8 bits
Scan type : Progressive
Bits/(Pixel*Frame) : 0.063
Stream size : 707 MiB (89%)
Default : Yes
Forced : No
Color range : Limited
Color primaries : BT.709
Transfer characteristics : BT.709
Matrix coefficients : BT.709

Audio
ID : 2
Format : AAC
Format/Info : Advanced Audio Codec
Format profile : LC
Codec ID : A_AAC-2
Duration : 1 h 36 min
Bit rate : 129 kb/s
Channel(s) : 2 channels
Channel positions : Front: L R
Sampling rate : 48.0 kHz
Frame rate : 46.875 FPS (1024 SPF)
Compression mode : Lossy
Delay relative to video : 9 ms
Stream size : 89.0 MiB (11%)
Language : Persian
Default : Yes
Forced : No

Text
ID : 3
Format : UTF-8
Codec ID : S_TEXT/UTF8
Codec ID/Info : UTF-8 Plain Text
Duration : 1 h 32 min
Bit rate : 4 b/s
Count of elements : 249
Stream size : 3.15 KiB (0%)
Default : Yes
Forced : No

[collapse]
Download Link(s)

Download

Direct download files get automatically deleted after a month or so. Posted on : 05/16/2018

[collapse]
Magnet Link

Magnet

Source : Tehran.Taboo.2017.1080p.AMZN.WEBRip.DDP5.1.x264-NTG-2.29 GB

[collapse]

You may also like...

error: nah :p~