The Girl Without Hands (2016)

La jeune fille sans mains (original title)|1h 16min | Animation | 14 December 2016 (France)

In hard times, a miller sells his daughter to the Devil. Protected by her purity, she escapes but is deprived of her hands. Walking away from her family, she encounters the goddess of water, a gentle gardener and the prince in his castle. A long journey towards the light…

Watch trailer

Media information

General
Format : Matroska
Format version : Version 4 / Version 2
File size : 702 MiB
Duration : 1 h 15 min
Overall bit rate : 1 301 kb/s
Movie name : The.Girl.Without.Hands.2016.720p.BluRay.2CH.x264.AVC
Encoded date : UTC 2018-02-27 16:32:31
Writing application : mkvmerge v21.0.0 (‘Tardigrades Will Inherit The Earth’) 32-bit
Writing library : libebml v1.3.5 + libmatroska v1.4.8

Video
ID : 2
Format : AVC
Format/Info : Advanced Video Codec
Format profile : [email protected]
Format settings : CABAC / 9 Ref Frames
Format settings, CABAC : Yes
Format settings, RefFrames : 9 frames
Codec ID : V_MPEG4/ISO/AVC
Duration : 1 h 15 min
Bit rate : 1 199 kb/s
Width : 1 280 pixels
Height : 688 pixels
Display aspect ratio : 1.85:1
Frame rate mode : Constant
Frame rate : 23.976 (24000/1001) FPS
Color space : YUV
Chroma subsampling : 4:2:0
Bit depth : 8 bits
Scan type : Progressive
Bits/(Pixel*Frame) : 0.057
Stream size : 647 MiB (92%)
Writing library : x264 core 133 r2334 a3ac64b
Default : Yes
Forced : No

Audio
ID : 1
Format : AAC
Format/Info : Advanced Audio Codec
Format profile : HE-AAC / LC
Format settings : Explicit
Codec ID : A_AAC-2
Duration : 1 h 15 min
Bit rate : 100.0 kb/s
Channel(s) : 2 channels
Channel positions : Front: L R
Sampling rate : 48.0 kHz / 24.0 kHz
Frame rate : 23.438 FPS (1024 SPF)
Compression mode : Lossy
Delay relative to video : 31 ms
Stream size : 54.0 MiB (8%)
Language : English
Default : Yes
Forced : No

Text
ID : 3
Format : UTF-8
Codec ID : S_TEXT/UTF8
Codec ID/Info : UTF-8 Plain Text
Duration : 1 h 13 min
Bit rate : 19 b/s
Count of elements : 436
Stream size : 10.5 KiB (0%)
Title : Forced
Language : English
Default : Yes
Forced : Yes

[collapse]
Download Link(s)

Download

Direct download files get automatically deleted after a month or so. Posted on : 02/27/2018

[collapse]
Magnet Link

Magnet

Source : The.Girl.Without.Hands.2016.1080p.BluRay.x264-NODLABS-4.37 GB

[collapse]

Release Notes

Language : French

Subtitles : English

[collapse]

You may also like...

error: nah :p~