The Star (2017)

PG | 1h 26min | Animation, Adventure, Comedy | 17 November 2017 (USA)

A small but brave donkey and his animal friends become the unsung heroes of the first Christmas.

Watch trailer

Media information

General
Format : Matroska
Format version : Version 4 / Version 2
File size : 628 MiB
Duration : 1 h 26 min
Overall bit rate : 1 020 kb/s
Movie name : The.Star.2017.720p.WEB-DL.2CH.x265.HEVC
Encoded date : UTC 2018-02-02 17:15:35
Writing application : mkvmerge v20.0.0 (‘I Am The Sun’) 32-bit
Writing library : libebml v1.3.5 + libmatroska v1.4.8

Video
ID : 1
Format : HEVC
Format/Info : High Efficiency Video Coding
Format profile : [email protected]@Main
Codec ID : V_MPEGH/ISO/HEVC
Duration : 1 h 26 min
Bit rate : 887 kb/s
Width : 1 280 pixels
Height : 688 pixels
Display aspect ratio : 1.85:1
Frame rate mode : Variable
Frame rate : 23.976 FPS
Color space : YUV
Chroma subsampling : 4:2:0
Bit depth : 8 bits
Bits/(Pixel*Frame) : 0.042
Stream size : 546 MiB (87%)
Writing library : x265 2.5+27-0e168bdeb48b:[Linux][GCC 6.4.0][64 bit] 8bit+10bit+12bit
Language : English
Default : Yes
Forced : No

Audio
ID : 2
Format : AAC
Format/Info : Advanced Audio Codec
Format profile : LC
Codec ID : A_AAC-2
Duration : 1 h 26 min
Bit rate : 132 kb/s
Channel(s) : 2 channels
Channel positions : Front: L R
Sampling rate : 48.0 kHz
Frame rate : 46.875 FPS (1024 SPF)
Compression mode : Lossy
Stream size : 80.5 MiB (13%)
Language : English
Default : Yes
Forced : No

Text
ID : 3
Format : UTF-8
Codec ID : S_TEXT/UTF8
Codec ID/Info : UTF-8 Plain Text
Duration : 1 h 23 min
Bit rate : 77 b/s
Count of elements : 1638
Stream size : 47.5 KiB (0%)
Default : Yes
Forced : No

[collapse]
Download Link(s)

Download

Direct download files get automatically deleted after a month or so. Posted on : 02/02/2018

[collapse]
Magnet Link

Magnet

Source : The.Star.2017.1080p.BluRay.x264-DRONES-4.40 GB

[collapse]

You may also like...

error: nah :p~