3 Days to Kill (2014)

PG-13 | 1h 57min | Action, Drama, Thriller | 21 February 2014 (USA)

A dying CIA agent trying to reconnect with his estranged daughter is offered an experimental drug that could save his life in exchange for one last assignment.

Watch trailer

Media information

General
Format : Matroska
Format version : Version 4 / Version 2
File size : 2.64 GiB
Duration : 2 h 2 min
Overall bit rate : 3 096 kb/s
Movie name : 3 Days to Kill (2014)1080p.BluRay.x265.HEVC.10bit.5.1ch
Encoded date : UTC 2017-12-30 19:46:37
Writing application : mkvmerge v19.0.0 (‘Brave Captain’) 32-bit
Writing library : libebml v1.3.5 + libmatroska v1.4.8

Video
ID : 1
Format : HEVC
Format/Info : High Efficiency Video Coding
Format profile : Main [email protected]@Main
Codec ID : V_MPEGH/ISO/HEVC
Duration : 2 h 2 min
Bit rate : 2 645 kb/s
Width : 1 920 pixels
Height : 810 pixels
Display aspect ratio : 2.40:1
Frame rate mode : Constant
Frame rate : 23.976 (24000/1001) FPS
Color space : YUV
Chroma subsampling : 4:2:0
Bit depth : 10 bits
Bits/(Pixel*Frame) : 0.071
Stream size : 2.26 GiB (85%)
Default : Yes
Forced : No

Audio
ID : 2
Format : AAC
Format/Info : Advanced Audio Codec
Format profile : LC
Codec ID : A_AAC-2
Duration : 2 h 2 min
Bit rate : 448 kb/s
Channel(s) : 6 channels
Channel positions : Front: L C R, Side: L R, LFE
Sampling rate : 48.0 kHz
Frame rate : 46.875 FPS (1024 SPF)
Compression mode : Lossy
Stream size : 392 MiB (14%)
Title : LC AAC 448 kbs, 6ch
Default : Yes
Forced : No

Text
ID : 3
Format : UTF-8
Codec ID : S_TEXT/UTF8
Codec ID/Info : UTF-8 Plain Text
Duration : 1 h 55 min
Bit rate : 54 b/s
Count of elements : 1425
Stream size : 45.7 KiB (0%)
Default : No
Forced : No

[collapse]
Download Link(s)

Part02 Part03  Part04

Direct download files get automatically deleted after a month or so. Posted on : 12/31/2017

[collapse]
Magnet Link

Magnet

Source : 3.Days.to.Kill.2014.EXTENDED.CUT.1080p.BluRay.x264-SPARKS-8.74 GB

[collapse]

Media information

General
Format : Matroska
Format version : Version 4 / Version 2
File size : 704 MiB
Duration : 2 h 2 min
Overall bit rate : 804 kb/s
Movie name : 3 Days To Kill (2014)720p.bluray.x265.hevc
Encoded date : UTC 2017-12-30 19:48:22 / UTC 2017-12-30T00:13:39Z
Writing application : mkvmerge v19.0.0 (‘Brave Captain’) 32-bit
Writing library : libebml v1.3.5 + libmatroska v1.4.8 / Lavf57.7.2

Video
ID : 1
Format : HEVC
Format/Info : High Efficiency Video Coding
Format profile : [email protected]@Main
Codec ID : V_MPEGH/ISO/HEVC
Duration : 2 h 2 min
Width : 1 280 pixels
Height : 720 pixels
Display aspect ratio : 2.35:1
Original display aspect ratio : 2.40:1
Frame rate mode : Constant
Frame rate : 23.976 (24000/1001) FPS
Color space : YUV
Chroma subsampling : 4:2:0
Bit depth : 8 bits
Writing library : x265 2.1:[Windows][GCC 5.3.1][64 bit] 8bit
Default : Yes
Forced : No
Color range : Limited
Color primaries : BT.709
Transfer characteristics : BT.709
Matrix coefficients : BT.709
FromStats_BitRate : 698519
FromStats_Duration : 02:02:18.790000000
FromStats_FrameCount : 175955
FromStats_StreamSize : 640786242

Audio
ID : 2
Format : Opus
Codec ID : A_OPUS
Duration : 2 h 2 min
Channel(s) : 2 channels
Channel positions : Front: L R
Sampling rate : 48.0 kHz
Compression mode : Lossy
Delay relative to video : -7 ms
Title : Stereo
Default : Yes
Forced : No
FromStats_BitRate : 103267
FromStats_Duration : 02:02:19.041000000
FromStats_FrameCount : 366952
FromStats_StreamSize : 94735766

Text
ID : 3
Format : ASS
Codec ID : S_TEXT/ASS
Codec ID/Info : Advanced Sub Station Alpha
Compression mode : Lossless
Default : Yes
Forced : Yes
FromStats_BitRate : 92
FromStats_Duration : 01:55:16.700000000
FromStats_FrameCount : 1425
FromStats_StreamSize : 80231

[collapse]
Download Link(s)

Download

Direct download files get automatically deleted after a month or so. Posted on : 12/30/2017

[collapse]
Magnet Link

Magnet

Source : 3.Days.to.Kill.2014.EXTENDED.CUT.1080p.BluRay.x264-SPARKS-8.74 GB

[collapse]

You may also like...

error: nah :p~