6 Below: Miracle on the Mountain (2017)

PG-13 | 1h 38min | Adventure, Biography, Drama | 13 October 2017 (USA)

An adrenaline seeking snowboarder gets lost in a massive winter storm in the back country of the High Sierras where he is pushed to the limits of human endurance and forced to battle his own personal demons as he fights for survival….”

Media information

General
Format : Matroska
Format version : Version 4 / Version 2
File size : 647 MiB
Duration : 1 h 37 min
Overall bit rate : 925 kb/s
Movie name : 6.Below.Miracle.on.the.Mountain.2017.720p.WEB-DL.2CH.x265
Encoded date : UTC 2017-10-14 06:15:50
Writing application : mkvmerge v16.0.0 (‘Protest’) 32-bit
Writing library : libebml v1.3.5 + libmatroska v1.4.8

Video
ID : 1
Format : HEVC
Format/Info : High Efficiency Video Coding
Format profile : [email protected]@Main
Codec ID : V_MPEGH/ISO/HEVC
Duration : 1 h 37 min
Bit rate : 852 kb/s
Width : 1 280 pixels
Height : 464 pixels
Display aspect ratio : 2.759
Frame rate mode : Constant
Frame rate : 23.976 (24000/1001) FPS
Color space : YUV
Chroma subsampling : 4:2:0
Bit depth : 8 bits
Bits/(Pixel*Frame) : 0.060
Stream size : 596 MiB (92%)
Default : Yes
Forced : No

Audio
ID : 2
Format : AAC
Format/Info : Advanced Audio Codec
Format profile : HE-AAC / LC
Format settings : Explicit
Codec ID : A_AAC-2
Duration : 1 h 37 min
Bit rate : 72.0 kb/s
Channel(s) : 2 channels
Channel positions : Front: L R
Sampling rate : 48.0 kHz / 24.0 kHz
Frame rate : 23.438 FPS (1024 SPF)
Compression mode : Lossy
Delay relative to video : 23 ms
Stream size : 49.6 MiB (8%)
Default : Yes
Forced : No

Text
ID : 3
Format : UTF-8
Codec ID : S_TEXT/UTF8
Codec ID/Info : UTF-8 Plain Text
Duration : 1 h 33 min
Bit rate : 25 b/s
Count of elements : 589
Stream size : 17.5 KiB (0%)
Language : English
Default : Yes
Forced : No

[collapse]
Download Link(s)

[collapse]
Magnet Link

 

Magnet

6.Below.Miracle.on.the.Mountain.2017.1080p.WEB-DL.DD5.1.H264-FGT-3.37 GB

[collapse]

You may also like...

error: nah :p~