A Bad Idea Gone Wrong (2017)

1h 25min | Comedy | 1 December 2017 (USA)

Two would-be thieves forge a surprising relationship with with an unexpected housesitter when they accidentally trap themselves in a house they just broke into.

Media information

General
Format : Matroska
Format version : Version 4 / Version 2
File size : 586 MiB
Duration : 1 h 21 min
Overall bit rate : 1 008 kb/s
Movie name : A.Bad.Idea.Gone.Wrong.2017.720p.WEB-DL.2CH.x265.HEVC
Encoded date : UTC 2017-12-01 22:09:57
Writing application : mkvmerge v18.0.0 (‘Apricity’) 32-bit
Writing library : libebml v1.3.5 + libmatroska v1.4.8

Video
ID : 1
Format : HEVC
Format/Info : High Efficiency Video Coding
Format profile : [email protected]@Main
Codec ID : V_MPEGH/ISO/HEVC
Duration : 1 h 21 min
Bit rate : 941 kb/s
Width : 1 280 pixels
Height : 720 pixels
Display aspect ratio : 16:9
Frame rate mode : Constant
Frame rate : 23.976 (24000/1001) FPS
Color space : YUV
Chroma subsampling : 4:2:0
Bit depth : 8 bits
Bits/(Pixel*Frame) : 0.043
Stream size : 547 MiB (93%)
Default : Yes
Forced : No

Audio
ID : 2
Format : AAC
Format/Info : Advanced Audio Codec
Format profile : HE-AAC / LC
Format settings : Explicit
Codec ID : A_AAC-2
Duration : 1 h 21 min
Bit rate : 66.2 kb/s
Channel(s) : 2 channels
Channel positions : Front: L R
Sampling rate : 48.0 kHz / 24.0 kHz
Frame rate : 23.438 FPS (1024 SPF)
Compression mode : Lossy
Delay relative to video : 23 ms
Stream size : 37.9 MiB (6%)
Default : Yes
Forced : No

Text
ID : 3
Format : UTF-8
Codec ID : S_TEXT/UTF8
Codec ID/Info : UTF-8 Plain Text
Duration : 1 h 18 min
Bit rate : 75 b/s
Count of elements : 1451
Stream size : 43.3 KiB (0%)
Language : English
Default : Yes
Forced : No

[collapse]
Download Link(s)

[collapse]
Magnet Link

Magnet

Source : A.Bad.Idea.Gone.Wrong.2017.1080p.WEB-DL.DD5.1.H264-FGT-3.19 GB

[collapse]

You may also like...

error: nah :p~