A Better Tomorrow 2018 (2018)

Ying xiong ben se 2018 (original title)|1h 54min | Action, Crime, Drama | 19 January 2018 (USA)

This film traces the journey of a former smuggler attempting to start his life anew and repair his relationship with his estranged brother after his release from prison.

Watch trailer

Media information

General
Format : Matroska
Format version : Version 4 / Version 2
File size : 713 MiB
Duration : 1 h 53 min
Overall bit rate : 876 kb/s
Movie name : A.Better.Tomorrow.2018.720p.WEBRip.2CH.x265.HEVC
Encoded date : UTC 2018-04-05 19:32:26
Writing application : mkvmerge v21.0.0 (‘Tardigrades Will Inherit The Earth’) 32-bit
Writing library : libebml v1.3.5 + libmatroska v1.4.8

Video
ID : 1
Format : HEVC
Format/Info : High Efficiency Video Coding
Format profile : [email protected]@Main
Codec ID : V_MPEGH/ISO/HEVC
Duration : 1 h 53 min
Bit rate : 744 kb/s
Width : 1 280 pixels
Height : 536 pixels
Display aspect ratio : 2.40:1
Frame rate mode : Variable
Frame rate : 24.000 FPS
Color space : YUV
Chroma subsampling : 4:2:0
Bit depth : 8 bits
Bits/(Pixel*Frame) : 0.045
Stream size : 606 MiB (85%)
Writing library : x265 2.5+27-0e168bdeb48b:[Linux][GCC 6.4.0][64 bit] 8bit+10bit+12bit
Language : Chinese
Default : Yes
Forced : No

Audio
ID : 2
Format : AAC
Format/Info : Advanced Audio Codec
Format profile : LC
Codec ID : A_AAC-2
Duration : 1 h 53 min
Bit rate : 132 kb/s
Channel(s) : 2 channels
Channel positions : Front: L R
Sampling rate : 48.0 kHz
Frame rate : 46.875 FPS (1024 SPF)
Compression mode : Lossy
Stream size : 106 MiB (15%)
Language : Chinese
Default : Yes
Forced : No

Text
ID : 3
Format : UTF-8
Codec ID : S_TEXT/UTF8
Codec ID/Info : UTF-8 Plain Text
Duration : 1 h 47 min
Bit rate : 42 b/s
Count of elements : 1426
Stream size : 33.1 KiB (0%)
Default : Yes
Forced : No

[collapse]
Download Link(s)

Download

Direct download files get automatically deleted after a month or so. Posted on : 04/06/2018

[collapse]
Magnet Link

Magnet

Source : A.Better.Tomorrow.2018.CHINESE.1080p.BluRay.x264.DD5.1-FGT-9.53 GB

[collapse]

You may also like...

error: nah :p~