Alex Strangelove (2018)

TV-MA | 1h 39min | Comedy | 8 June 2018 (USA)

Alex Truelove (Daniel Doheny) is a well-rounded high school senior with a wonderful girlfriend Claire (Madeline Weinstein) and a bright future ahead of him – and with plans to achieve his last teenage milestone by losing his virginity. But things get complicated when he meets Elliot (Antonio Marziale), a handsome and charming gay kid from the other side of town, who unwittingly sends Alex on a rollercoaster journey of sexual exploration, kicking off a hilarious and moving adventure of love, sex and friendship in our liberated and confusing modern times. Written and directed by Craig Johnson (The Skeleton Twins, Wilson), produced by Ben Stiller, Nicky Weinstock, and Jared Ian Goldman.

Watch trailer

Media information

General
Format : Matroska
Format version : Version 4 / Version 2
File size : 779 MiB
Duration : 1 h 39 min
Overall bit rate : 1 092 kb/s
Movie name : Alex.Strangelove.2018.720p.WEB-DL.2CH.x264.AVC
Encoded date : UTC 2018-06-09 12:18:10
Writing application : mkvmerge v23.0.0 (‘The Bride Said No’) 32-bit
Writing library : libebml v1.3.6 + libmatroska v1.4.9

Video
ID : 1
Format : AVC
Format/Info : Advanced Video Codec
Format profile : [email protected]
Format settings : CABAC / 4 Ref Frames
Format settings, CABAC : Yes
Format settings, RefFrames : 4 frames
Codec ID : V_MPEG4/ISO/AVC
Duration : 1 h 39 min
Bit rate : 1 000 kb/s
Width : 1 280 pixels
Height : 536 pixels
Display aspect ratio : 2.40:1
Frame rate mode : Constant
Frame rate : 23.976 (24000/1001) FPS
Color space : YUV
Chroma subsampling : 4:2:0
Bit depth : 8 bits
Scan type : Progressive
Bits/(Pixel*Frame) : 0.061
Stream size : 686 MiB (88%)
Default : Yes
Forced : No
Color range : Limited
Color primaries : BT.709
Transfer characteristics : BT.709
Matrix coefficients : BT.709

Audio
ID : 2
Format : AAC
Format/Info : Advanced Audio Codec
Format profile : HE-AAC / LC
Format settings : NBC
Codec ID : A_AAC-5
Duration : 1 h 39 min
Bit rate : 128 kb/s
Channel(s) : 2 channels
Channel positions : Front: L R
Sampling rate : 48.0 kHz / 24.0 kHz
Frame rate : 23.438 FPS (1024 SPF)
Compression mode : Lossy
Delay relative to video : -105 ms
Stream size : 91.3 MiB (12%)
Language : English
Default : Yes
Forced : No

Text #1
ID : 3
Format : ASS
Codec ID : S_TEXT/ASS
Codec ID/Info : Advanced Sub Station Alpha
Duration : 1 h 32 min
Bit rate : 128 b/s
Count of elements : 1690
Compression mode : Lossless
Stream size : 86.9 KiB (0%)
Language : English
Default : No
Forced : No

Text #2
ID : 4
Format : ASS
Codec ID : S_TEXT/ASS
Codec ID/Info : Advanced Sub Station Alpha
Duration : 1 h 38 min
Bit rate : 85 b/s
Count of elements : 1207
Compression mode : Lossless
Stream size : 61.6 KiB (0%)
Language : Dutch
Default : No
Forced : No

Text #3
ID : 5
Format : ASS
Codec ID : S_TEXT/ASS
Codec ID/Info : Advanced Sub Station Alpha
Duration : 1 h 34 min
Bit rate : 103 b/s
Count of elements : 1512
Compression mode : Lossless
Stream size : 71.5 KiB (0%)
Language : Spanish
Default : No
Forced : No

Text #4
ID : 6
Format : ASS
Codec ID : S_TEXT/ASS
Codec ID/Info : Advanced Sub Station Alpha
Duration : 1 h 34 min
Bit rate : 112 b/s
Count of elements : 1505
Compression mode : Lossless
Stream size : 77.8 KiB (0%)
Language : French
Default : No
Forced : No

Text #5
ID : 7
Format : ASS
Codec ID : S_TEXT/ASS
Codec ID/Info : Advanced Sub Station Alpha
Duration : 1 h 34 min
Bit rate : 105 b/s
Count of elements : 1487
Compression mode : Lossless
Stream size : 73.0 KiB (0%)
Language : German
Default : No
Forced : No

[collapse]
Download Link(s)

Download

Direct download files get automatically deleted after a month or so. Posted on : 06/09/2018

[collapse]
Magnet Link

Magnet

Source : Alex.Strangelove.2018.1080p.NF.WEBRip.DD5.1.x264-NTG-2.34 GB

[collapse]

You may also like...

error: nah :p~