Almost Friends (2016)

1h 41min | Comedy, Drama | 17 November 2017 (USA)

Charlie is an unmotivated man in his mid 20s still living at home with his mother and stepfather who falls for a young woman who has a serious boyfriend.

Media information

General
Format : Matroska
Format version : Version 4 / Version 2
File size : 635 MiB
Duration : 1 h 41 min
Overall bit rate : 873 kb/s
Movie name : Almost.Friends.2016.720p.WEB-DL.2CH.x265.HEVC
Encoded date : UTC 2017-11-18 11:52:46
Writing application : mkvmerge v17.0.0 (‘Be Ur Friend’) 32-bit
Writing library : libebml v1.3.5 + libmatroska v1.4.8

Video
ID : 1
Format : HEVC
Format/Info : High Efficiency Video Coding
Format profile : [email protected]@Main
Codec ID : V_MPEGH/ISO/HEVC
Duration : 1 h 41 min
Bit rate : 802 kb/s
Width : 1 280 pixels
Height : 536 pixels
Display aspect ratio : 2.40:1
Frame rate mode : Constant
Frame rate : 23.976 (24000/1001) FPS
Color space : YUV
Chroma subsampling : 4:2:0
Bit depth : 8 bits
Bits/(Pixel*Frame) : 0.049
Stream size : 584 MiB (92%)
Default : Yes
Forced : No

Audio
ID : 2
Format : AAC
Format/Info : Advanced Audio Codec
Format profile : HE-AAC / LC
Format settings : Explicit
Codec ID : A_AAC-2
Duration : 1 h 41 min
Bit rate : 69.0 kb/s
Channel(s) : 2 channels
Channel positions : Front: L R
Sampling rate : 48.0 kHz / 24.0 kHz
Frame rate : 23.438 FPS (1024 SPF)
Compression mode : Lossy
Delay relative to video : 23 ms
Stream size : 50.2 MiB (8%)
Language : English
Default : Yes
Forced : No

Text
ID : 3
Format : UTF-8
Codec ID : S_TEXT/UTF8
Codec ID/Info : UTF-8 Plain Text
Duration : 1 h 35 min
Bit rate : 56 b/s
Count of elements : 1216
Stream size : 39.6 KiB (0%)
Default : Yes
Forced : No

[collapse]
Download Link(s)

[collapse]
Magnet Link

Magnet

Source : Almost.Friends.2016.1080p.WEB-DL.DD5.1.H264-FGT-3.54 GB

[collapse]

You may also like...

error: nah :p~