Anna Karenina (2012)

R | 2h 9min | Drama, Romance | 11 January 2013 (Cyprus)

A dying CIA agent trying to reconnect with his estranged daughter is offered an experimental drug that could save his life in exchange for one last assignment.

Watch trailer

Media information

General
Format : Matroska
Format version : Version 4 / Version 2
File size : 1.11 GiB
Duration : 2 h 9 min
Overall bit rate : 1 224 kb/s
Movie name : Anna.Karenina.2012.720p.10bit.BluRay.6CH.x265.HEVC
Encoded date : UTC 2017-12-30 21:44:25
Writing application : mkvmerge v19.0.0 (‘Brave Captain’) 32-bit
Writing library : libebml v1.3.5 + libmatroska v1.4.8

Video
ID : 1
Format : HEVC
Format/Info : High Efficiency Video Coding
Format profile : Main [email protected]@Main
Codec ID : V_MPEGH/ISO/HEVC
Duration : 2 h 9 min
Bit rate : 1 021 kb/s
Width : 1 280 pixels
Height : 536 pixels
Display aspect ratio : 2.40:1
Frame rate mode : Constant
Frame rate : 23.976 (24000/1001) FPS
Color space : YUV
Chroma subsampling : 4:2:0
Bit depth : 10 bits
Bits/(Pixel*Frame) : 0.062
Stream size : 946 MiB (83%)
Default : Yes
Forced : No

Audio
ID : 2
Format : AAC
Format/Info : Advanced Audio Codec
Format profile : HE-AAC / LC
Format settings : NBC
Codec ID : A_AAC-2
Duration : 2 h 9 min
Bit rate : 201 kb/s
Channel(s) : 6 channels
Channel(s)_Original : 18 channels
Channel positions : Front: 14, Side: C, Back: C, LFE= 2
Sampling rate : 48.0 kHz / 24.0 kHz
Frame rate : 23.438 FPS (1024 SPF)
Compression mode : Lossy
Delay relative to video : 23 ms
Stream size : 186 MiB (16%)
Default : Yes
Forced : No

Text #1
ID : 3
Format : UTF-8
Codec ID : S_TEXT/UTF8
Codec ID/Info : UTF-8 Plain Text
Duration : 2 h 0 min
Bit rate : 43 b/s
Count of elements : 1278
Stream size : 37.9 KiB (0%)
Title : ENG
Language : English
Default : Yes
Forced : No

Text #2
ID : 4
Format : UTF-8
Codec ID : S_TEXT/UTF8
Codec ID/Info : UTF-8 Plain Text
Duration : 1 h 59 min
Bit rate : 46 b/s
Count of elements : 1430
Stream size : 41.0 KiB (0%)
Title : ENG SDH
Language : English
Default : No
Forced : No

Text #3
ID : 5
Format : UTF-8
Codec ID : S_TEXT/UTF8
Codec ID/Info : UTF-8 Plain Text
Duration : 2 h 0 min
Bit rate : 72 b/s
Count of elements : 1284
Stream size : 64.0 KiB (0%)
Language : Russian
Default : No
Forced : No

[collapse]
Download Link(s)

Part02 Part03

Direct download files get automatically deleted after a month or so. Posted on : 12/31/2017

[collapse]
Magnet Link

Magnet

Source : Anna.Karenina.2011.LIMITED.1080p.BluRay.x264-WEST-8.73 GB

[collapse]

You may also like...

error: nah :p~