Backstabbing for Beginners (2018)

R | 1h 48min | Drama, History, Thriller | 27 April 2018 (USA)

A young program coordinator at the United Nations stumbles upon a conspiracy involving Iraq’s oil reserves.

Watch trailer

Media information

General
Format : Matroska
Format version : Version 4 / Version 2
File size : 618 MiB
Duration : 1 h 48 min
Overall bit rate : 798 kb/s
Movie name : Backstabbing.for.Beginners.2018.720p.BrRip.2CH.x265.HEVC
Encoded date : UTC 2018-04-20 15:43:53
Writing application : mkvmerge v22.0.0 (‘At The End Of The World’) 32-bit
Writing library : libebml v1.3.5 + libmatroska v1.4.8

Video
ID : 1
Format : HEVC
Format/Info : High Efficiency Video Coding
Format profile : [email protected]@Main
Codec ID : V_MPEGH/ISO/HEVC
Duration : 1 h 48 min
Bit rate : 729 kb/s
Width : 1 280 pixels
Height : 536 pixels
Display aspect ratio : 2.40:1
Frame rate mode : Constant
Frame rate : 23.976 (24000/1001) FPS
Color space : YUV
Chroma subsampling : 4:2:0
Bit depth : 8 bits
Bits/(Pixel*Frame) : 0.044
Stream size : 565 MiB (91%)
Default : Yes
Forced : No

Audio
ID : 2
Format : AAC
Format/Info : Advanced Audio Codec
Format profile : HE-AAC / LC
Format settings : Explicit
Codec ID : A_AAC-2
Duration : 1 h 48 min
Bit rate : 66.2 kb/s
Channel(s) : 2 channels
Channel positions : Front: L R
Sampling rate : 48.0 kHz / 24.0 kHz
Frame rate : 23.438 FPS (1024 SPF)
Compression mode : Lossy
Delay relative to video : 23 ms
Stream size : 51.7 MiB (8%)
Language : English
Default : Yes
Forced : No

[collapse]
Download Link(s)

Download

No subs are available

Direct download files get automatically deleted after a month or so. Posted on : 04/20/2018

[collapse]
Magnet Link

Magnet

Source : Backstabbing.for.Beginners.2018.1080p.BluRay.x264.DTS-MT-10.33 GB

[collapse]

You may also like...

error: nah :p~