Batman Begins (2005)

PG-13 | 2h 20min | Action, Adventure, Thriller | 15 June 2005 (USA)

After training with his mentor, Batman begins his fight to free crime-ridden Gotham City from the corruption that Scarecrow and the League of Shadows have cast upon it.

Watch trailer

Media information

General
Format : Matroska
Format version : Version 4 / Version 2
File size : 1.06 GiB
Duration : 2 h 20 min
Overall bit rate : 1 084 kb/s
Movie name : Batman.Begins.2005.REMASTERED.720p.10bit.BluRay.6CH.x265.HEVC
Encoded date : UTC 2018-01-17 22:18:59
Writing application : mkvmerge v20.0.0 (‘I Am The Sun’) 32-bit
Writing library : libebml v1.3.5 + libmatroska v1.4.8

Video
ID : 1
Format : HEVC
Format/Info : High Efficiency Video Coding
Format profile : Main [email protected]@Main
Codec ID : V_MPEGH/ISO/HEVC
Duration : 2 h 20 min
Bit rate : 874 kb/s
Width : 1 280 pixels
Height : 536 pixels
Display aspect ratio : 2.40:1
Frame rate mode : Constant
Frame rate : 23.976 (24000/1001) FPS
Color space : YUV
Chroma subsampling : 4:2:0
Bit depth : 10 bits
Bits/(Pixel*Frame) : 0.053
Stream size : 876 MiB (81%)
Default : Yes
Forced : No

Audio
ID : 2
Format : AAC
Format/Info : Advanced Audio Codec
Format profile : HE-AAC / LC
Format settings : NBC
Codec ID : A_AAC-2
Duration : 2 h 20 min
Bit rate : 208 kb/s
Channel(s) : 6 channels
Channel(s)_Original : 18 channels
Channel positions : Front: 14, Side: C, Back: C, LFE= 2
Sampling rate : 48.0 kHz / 24.0 kHz
Frame rate : 23.438 FPS (1024 SPF)
Compression mode : Lossy
Delay relative to video : 23 ms
Stream size : 208 MiB (19%)
Default : Yes
Forced : No

Text
ID : 3
Format : UTF-8
Codec ID : S_TEXT/UTF8
Codec ID/Info : UTF-8 Plain Text
Duration : 2 h 9 min
Bit rate : 51 b/s
Count of elements : 1385
Stream size : 49.5 KiB (0%)
Language : English
Default : Yes
Forced : No

[collapse]
Download Link(s)

Part02 Part03

Direct download files get automatically deleted after a month or so. Posted on : 01/18/2018

[collapse]
Magnet Link

Magnet

Source : Batman.Begins.2005.REMASTERED.1080p.BluRay.REMUX.AVC.DTS-HD.MA.5.1-FGT-41.39 GB

[collapse]

You may also like...

error: nah :p~