Battle of the Sexes (2017)

PG-13 | 2h 1min | Biography, Comedy, Drama | 29 September 2017 (USA)

The true story of the 1973 tennis match between World number one Billie Jean King and ex-champ and serial hustler Bobby Riggs.

Media information

General
Format : Matroska
Format version : Version 4 / Version 2
File size : 842 MiB
Duration : 2 h 2 min
Overall bit rate : 965 kb/s
Movie name : Battle.of.the.Sexes.2017.720p.WEB-DL.2CH.x265.HEVC
Encoded date : UTC 2017-12-19 22:56:52
Writing application : mkvmerge v19.0.0 (‘Brave Captain’) 32-bit
Writing library : libebml v1.3.5 + libmatroska v1.4.8

Video
ID : 1
Format : HEVC
Format/Info : High Efficiency Video Coding
Format profile : [email protected]@Main
Codec ID : V_MPEGH/ISO/HEVC
Duration : 2 h 2 min
Bit rate : 896 kb/s
Width : 1 280 pixels
Height : 536 pixels
Display aspect ratio : 2.40:1
Frame rate mode : Constant
Frame rate : 23.976 (24000/1001) FPS
Color space : YUV
Chroma subsampling : 4:2:0
Bit depth : 8 bits
Bits/(Pixel*Frame) : 0.054
Stream size : 783 MiB (93%)
Default : Yes
Forced : No
Color range : Limited
Color primaries : BT.709
Transfer characteristics : BT.709

Audio
ID : 2
Format : AAC
Format/Info : Advanced Audio Codec
Format profile : HE-AAC / LC
Format settings : Explicit
Codec ID : A_AAC-2
Duration : 2 h 1 min
Bit rate : 66.2 kb/s
Channel(s) : 2 channels
Channel positions : Front: L R
Sampling rate : 48.0 kHz / 24.0 kHz
Frame rate : 23.438 FPS (1024 SPF)
Compression mode : Lossy
Delay relative to video : 23 ms
Stream size : 58.1 MiB (7%)
Default : Yes
Forced : No

Text
ID : 3
Format : UTF-8
Codec ID : S_TEXT/UTF8
Codec ID/Info : UTF-8 Plain Text
Duration : 1 h 55 min
Bit rate : 75 b/s
Count of elements : 2078
Stream size : 63.3 KiB (0%)
Language : English
Default : Yes
Forced : No

[collapse]
Download Link(s)

[collapse]
Magnet Link

Magnet

Source : Battle.of.the.Sexes.2017.720p.WEB-DL.DD5.1.H264-FGT- 3.81 GB

[collapse]

You may also like...

error: nah :p~