Beyond Skyline (2017)

R | 1h 45min | Action, Adventure, Horror | 15 December 2017 (USA)

A tough-as-nails detective embarks on a relentless pursuit to free his son from a nightmarish alien warship.

Media information

General
Format : Matroska
Format version : Version 4 / Version 2
File size : 798 MiB
Duration : 1 h 47 min
Overall bit rate : 1 042 kb/s
Movie name : Beyond.Skyline.2017.720p.WEB-DL.2CH.x265.HEVC
Encoded date : UTC 2017-12-15 21:30:05
Writing application : mkvmerge v18.0.0 (‘Apricity’) 32-bit
Writing library : libebml v1.3.5 + libmatroska v1.4.8

Video
ID : 1
Format : HEVC
Format/Info : High Efficiency Video Coding
Format profile : [email protected]@Main
Codec ID : V_MPEGH/ISO/HEVC
Duration : 1 h 47 min
Bit rate : 967 kb/s
Width : 1 280 pixels
Height : 536 pixels
Display aspect ratio : 2.40:1
Frame rate mode : Constant
Frame rate : 23.976 (24000/1001) FPS
Color space : YUV
Chroma subsampling : 4:2:0
Bit depth : 8 bits
Bits/(Pixel*Frame) : 0.059
Stream size : 741 MiB (93%)
Default : Yes
Forced : No

Audio
ID : 2
Format : AAC
Format/Info : Advanced Audio Codec
Format profile : HE-AAC / LC
Format settings : Explicit
Codec ID : A_AAC-2
Duration : 1 h 47 min
Bit rate : 72.0 kb/s
Channel(s) : 2 channels
Channel positions : Front: L R
Sampling rate : 48.0 kHz / 24.0 kHz
Frame rate : 23.438 FPS (1024 SPF)
Compression mode : Lossy
Delay relative to video : 23 ms
Stream size : 56.2 MiB (7%)
Default : Yes
Forced : No

Text
ID : 3
Format : UTF-8
Codec ID : S_TEXT/UTF8
Codec ID/Info : UTF-8 Plain Text
Duration : 1 h 41 min
Bit rate : 29 b/s
Count of elements : 852
Stream size : 21.6 KiB (0%)
Language : English
Default : Yes
Forced : No

[collapse]
Download Link(s)

[collapse]
Magnet Link

Magnet

Source : Beyond.Skyline.2017.1080p.WEB-DL.DD5.1.H264-FGT-3.70 GB

[collapse]

You may also like...

error: nah :p~