Big Bear (2017)

TV-14 | 1h 28min | Comedy | 22 September 2017 (USA)

BIG BEAR is about Joe (Joey Kern) who reluctantly has his bachelor party even though his fiancé just dumped him for some Dude.

Details

General
Format : Matroska
Format version : Version 4 / Version 2
File size : 556 MiB
Duration : 1 h 27 min
Overall bit rate : 891 kb/s
Movie name : Big.Bear.2017.720p.WEB-DL.2CH.x265.HEVC
Encoded date : UTC 2017-10-05 14:53:11
Writing application : mkvmerge v16.0.0 (‘Protest’) 32-bit
Writing library : libebml v1.3.5 + libmatroska v1.4.8

Video
ID : 1
Format : HEVC
Format/Info : High Efficiency Video Coding
Format profile : [email protected]@Main
Codec ID : V_MPEGH/ISO/HEVC
Duration : 1 h 27 min
Bit rate : 821 kb/s
Width : 1 280 pixels
Height : 528 pixels
Display aspect ratio : 2.40:1
Frame rate mode : Constant
Frame rate : 23.976 (24000/1001) FPS
Color space : YUV
Chroma subsampling : 4:2:0
Bit depth : 8 bits
Bits/(Pixel*Frame) : 0.051
Stream size : 512 MiB (92%)
Default : Yes
Forced : No

Audio
ID : 2
Format : AAC
Format/Info : Advanced Audio Codec
Format profile : HE-AAC / LC
Format settings : Explicit
Codec ID : A_AAC-2
Duration : 1 h 27 min
Bit rate : 68.2 kb/s
Channel(s) : 2 channels
Channel positions : Front: L R
Sampling rate : 48.0 kHz / 24.0 kHz
Frame rate : 23.438 FPS (1024 SPF)
Compression mode : Lossy
Delay relative to video : 23 ms
Stream size : 42.6 MiB (8%)
Default : Yes
Forced : No

Text
ID : 3
Format : UTF-8
Codec ID : S_TEXT/UTF8
Codec ID/Info : UTF-8 Plain Text
Duration : 1 h 25 min
Bit rate : 71 b/s
Count of elements : 1450
Stream size : 44.9 KiB (0%)
Language : English
Default : Yes
Forced : No

[collapse]
Download

[collapse]
Magnet Link

Magnet

Big.Bear.2017.720p.WEB-DL.XviD.AC3-FGT-2.64 GB

[collapse]

You may also like...

error: nah :p~