Bon Cop Bad Cop 2 (2017)

2h 6min | Action, Comedy, Crime | 12 May 2017 (Canada)

A francophone S.Q. officer and an anglophone O.P.P officer reunite to investigate a large car theft ring led by an Italian mobster.

Media information

General
Format : Matroska
Format version : Version 4 / Version 2
File size : 763 MiB
Duration : 2 h 6 min
Overall bit rate : 845 kb/s
Movie name : Bon.Cop.Bad.Cop.2.2017.720p.BrRip.2CH.x265.HEVC
Encoded date : UTC 2017-10-11 17:26:18
Writing application : mkvmerge v16.0.0 (‘Protest’) 32-bit
Writing library : libebml v1.3.5 + libmatroska v1.4.8

Video
ID : 1
Format : HEVC
Format/Info : High Efficiency Video Coding
Format profile : [email protected]@Main
Codec ID : V_MPEGH/ISO/HEVC
Duration : 2 h 6 min
Bit rate : 778 kb/s
Width : 1 280 pixels
Height : 536 pixels
Display aspect ratio : 2.40:1
Frame rate mode : Constant
Frame rate : 23.976 (24000/1001) FPS
Color space : YUV
Chroma subsampling : 4:2:0
Bit depth : 8 bits
Bits/(Pixel*Frame) : 0.047
Stream size : 702 MiB (92%)
Default : Yes
Forced : No

Audio
ID : 2
Format : AAC
Format/Info : Advanced Audio Codec
Format profile : HE-AAC / LC
Format settings : Explicit
Codec ID : A_AAC-2
Duration : 2 h 6 min
Bit rate : 66.2 kb/s
Channel(s) : 2 channels
Channel positions : Front: L R
Sampling rate : 48.0 kHz / 24.0 kHz
Frame rate : 23.438 FPS (1024 SPF)
Compression mode : Lossy
Delay relative to video : 23 ms
Stream size : 58.7 MiB (8%)
Default : Yes
Forced : No

Text
ID : 3
Format : UTF-8
Codec ID : S_TEXT/UTF8
Codec ID/Info : UTF-8 Plain Text
Duration : 2 h 5 min
Bit rate : 69 b/s
Count of elements : 1828
Stream size : 64.1 KiB (0%)
Language : English
Default : Yes
Forced : No

[collapse]
Download Link(s)

[collapse]
Magnet Link

Magnet

Bon.Cop.Bad.Cop.2.2017.1080p.BluRay.x264-NODLABS-8.78 GB

[collapse]

You may also like...

error: nah :p~