Breathe (2017)

PG-13 | 1h 58min | Biography, Drama, Romance | 27 October 2017 (UK)

The inspiring true love story of Robin and Diana Cavendish, an adventurous couple who refuse to give up in the face of a devastating disease. Their heartwarming celebration of human possibility marks the directorial debut of Andy Serkis.

Media information

General
Format : Matroska
Format version : Version 4 / Version 2
File size : 802 MiB
Duration : 1 h 58 min
Overall bit rate : 949 kb/s
Movie name : Breathe.2017.720p.BrRip.2CH.x265.HEVC
Encoded date : UTC 2017-12-21 09:54:01
Writing application : mkvmerge v19.0.0 (‘Brave Captain’) 32-bit
Writing library : libebml v1.3.5 + libmatroska v1.4.8

Video
ID : 1
Format : HEVC
Format/Info : High Efficiency Video Coding
Format profile : [email protected]@Main
Codec ID : V_MPEGH/ISO/HEVC
Duration : 1 h 58 min
Bit rate : 883 kb/s
Width : 1 280 pixels
Height : 464 pixels
Display aspect ratio : 2.759
Frame rate mode : Constant
Frame rate : 23.976 (24000/1001) FPS
Color space : YUV
Chroma subsampling : 4:2:0
Bit depth : 8 bits
Bits/(Pixel*Frame) : 0.062
Stream size : 746 MiB (93%)
Default : Yes
Forced : No

Audio
ID : 2
Format : AAC
Format/Info : Advanced Audio Codec
Format profile : HE-AAC / LC
Format settings : Explicit
Codec ID : A_AAC-2
Duration : 1 h 58 min
Bit rate : 64.6 kb/s
Channel(s) : 2 channels
Channel positions : Front: L R
Sampling rate : 48.0 kHz / 24.0 kHz
Frame rate : 23.438 FPS (1024 SPF)
Compression mode : Lossy
Delay relative to video : 23 ms
Stream size : 54.6 MiB (7%)
Default : Yes
Forced : No

Text #1
ID : 3
Format : UTF-8
Codec ID : S_TEXT/UTF8
Codec ID/Info : UTF-8 Plain Text
Duration : 1 h 47 min
Bit rate : 48 b/s
Count of elements : 1361
Stream size : 38.5 KiB (0%)
Title : ENG
Language : English
Default : Yes
Forced : No

Text #2
ID : 4
Format : UTF-8
Codec ID : S_TEXT/UTF8
Codec ID/Info : UTF-8 Plain Text
Duration : 1 h 49 min
Bit rate : 53 b/s
Count of elements : 1509
Stream size : 43.3 KiB (0%)
Title : ENG SDH
Language : English
Default : No
Forced : No

[collapse]
Download Link(s)

[collapse]
Magnet Link

Magnet

Source : Breathe.2017.1080p.BluRay.x264-DRONES-8.75 GB

[collapse]

You may also like...

error: nah :p~