Crash Pad (2017)

R | 1h 33min | Comedy | 26 September 2017 (USA)

A hopeless romantic, who thinks he’s found true love with an older woman, learns that she’s married and that the fling is merely an instrument of revenge against her neglectful husband.

Media information

General
Format : Matroska
Format version : Version 4 / Version 2
File size : 515 MiB
Duration : 1 h 33 min
Overall bit rate : 771 kb/s
Movie name : Crash.Pad.2017.720p.WEB-DL.2CH.x265.HEVC
Encoded date : UTC 2017-10-30 10:19:48
Writing application : mkvmerge v17.0.0 (‘Be Ur Friend’) 32-bit
Writing library : libebml v1.3.5 + libmatroska v1.4.8

Video
ID : 1
Format : HEVC
Format/Info : High Efficiency Video Coding
Format profile : [email protected]@Main
Codec ID : V_MPEGH/ISO/HEVC
Duration : 1 h 33 min
Bit rate : 698 kb/s
Width : 1 280 pixels
Height : 536 pixels
Display aspect ratio : 2.40:1
Frame rate mode : Constant
Frame rate : 23.976 (24000/1001) FPS
Color space : YUV
Chroma subsampling : 4:2:0
Bit depth : 8 bits
Bits/(Pixel*Frame) : 0.042
Stream size : 466 MiB (91%)
Default : Yes
Forced : No

Audio
ID : 2
Format : AAC
Format/Info : Advanced Audio Codec
Format profile : HE-AAC / LC
Format settings : Explicit
Codec ID : A_AAC-2
Duration : 1 h 33 min
Bit rate : 72.0 kb/s
Channel(s) : 2 channels
Channel positions : Front: L R
Sampling rate : 48.0 kHz / 24.0 kHz
Frame rate : 23.438 FPS (1024 SPF)
Compression mode : Lossy
Delay relative to video : 23 ms
Stream size : 47.2 MiB (9%)
Default : Yes
Forced : No

Text
ID : 3
Format : UTF-8
Codec ID : S_TEXT/UTF8
Codec ID/Info : UTF-8 Plain Text
Duration : 1 h 32 min
Bit rate : 80 b/s
Count of elements : 1647
Stream size : 54.9 KiB (0%)
Language : English
Default : Yes
Forced : No

[collapse]
Download Link(s)

[collapse]
Magnet Link

 

Magnet

Source : Crash.Pad.2017.1080p.WEB-DL.DD5.1.H264-FGT-3.23 GB

[collapse]

You may also like...

error: nah :p~