Dawning of the Dead (2017)

Apocalypse (original title)|1h 43min | Horror | 5 December 2017 (USA)

While a virus that causes the dead to reanimate brings the world to its knees, the scientist responsible entrusts his cataclysmic findings to Katya Nevin, a troubled ex-war correspondent turned anchor-woman at W.W News. While she and the rest of her crew witness the collapse of society via video feeds from around the globe, a deadly special agent climbs the building floor by floor, his only goal to ensure her silence. Armed only with information and an indomitable will to live, Katya must overcome her crippling anxiety and learn to lead in order to make it out of the studio and into a terrifying new world where only the dead survive.

Watch trailer

Media information

General
Format : Matroska
Format version : Version 4 / Version 2
File size : 829 MiB
Duration : 1 h 43 min
Overall bit rate : 1 117 kb/s
Movie name : Dawning.of.the.Dead.2017.720p.WEB-DL.2CH.x264.AVC
Encoded date : UTC 2018-06-04 15:01:03
Writing application : mkvmerge v23.0.0 (‘The Bride Said No’) 32-bit
Writing library : libebml v1.3.6 + libmatroska v1.4.9

Video
ID : 1
Format : AVC
Format/Info : Advanced Video Codec
Format profile : [email protected]
Format settings : CABAC / 4 Ref Frames
Format settings, CABAC : Yes
Format settings, RefFrames : 4 frames
Codec ID : V_MPEG4/ISO/AVC
Duration : 1 h 43 min
Bit rate : 1 000 kb/s
Width : 1 280 pixels
Height : 528 pixels
Display aspect ratio : 2.40:1
Frame rate mode : Constant
Frame rate : 23.976 (24000/1001) FPS
Color space : YUV
Chroma subsampling : 4:2:0
Bit depth : 8 bits
Scan type : Progressive
Bits/(Pixel*Frame) : 0.062
Stream size : 732 MiB (88%)
Default : Yes
Forced : No
Color range : Limited
Color primaries : BT.709
Transfer characteristics : BT.709
Matrix coefficients : BT.709

Audio
ID : 2
Format : AAC
Format/Info : Advanced Audio Codec
Format profile : HE-AAC / LC
Format settings : NBC
Codec ID : A_AAC-5
Duration : 1 h 43 min
Bit rate : 128 kb/s
Channel(s) : 2 channels
Channel positions : Front: L R
Sampling rate : 48.0 kHz / 24.0 kHz
Frame rate : 23.438 FPS (1024 SPF)
Compression mode : Lossy
Delay relative to video : -105 ms
Stream size : 95.0 MiB (11%)
Language : English
Default : Yes
Forced : No

Text #1
ID : 3
Format : ASS
Codec ID : S_TEXT/ASS
Codec ID/Info : Advanced Sub Station Alpha
Duration : 1 h 35 min
Bit rate : 83 b/s
Count of elements : 1250
Compression mode : Lossless
Stream size : 59.0 KiB (0%)
Language : English
Default : No
Forced : No

Text #2
ID : 4
Format : ASS
Codec ID : S_TEXT/ASS
Codec ID/Info : Advanced Sub Station Alpha
Duration : 1 h 37 min
Bit rate : 110 b/s
Count of elements : 1774
Compression mode : Lossless
Stream size : 79.0 KiB (0%)
Language : English
Default : No
Forced : No

[collapse]
Download Link(s)

Download

Direct download files get automatically deleted after a month or so. Posted on : 06/04/2018

[collapse]
Magnet Link

Magnet

Source : Dawning.of.the.Dead.2017.1080p.AMZN.WEBRip.DDP5.1.x264-NTG-3.85 GB

[collapse]

You may also like...

error: nah :p~