Devil’s Tree: Rooted Evil (2018)

1h 16min | Horror, Thriller | February 2018 (USA)

Devil’s Tree: Rooted Evil is about an aspiring journalist named Sam who finds a Tree with a very dark history. As her own past has has demons that continue to haunt her, she eventually finds out what haunts this ominous Tree. Loosely based on real events, the actual Tree still stands today. This film takes you on a ride out of the realm of fantasy and into the realm of true Evil.

Watch trailer

Media information

General
Format : Matroska
Format version : Version 4 / Version 2
File size : 602 MiB
Duration : 1 h 14 min
Overall bit rate : 1 127 kb/s
Movie name : Devils.Tree.Rooted.Evil.2018.720p.WEB-DL.2CH.x264.AVC
Encoded date : UTC 2018-02-28 16:54:04
Writing application : mkvmerge v21.0.0 (‘Tardigrades Will Inherit The Earth’) 32-bit
Writing library : libebml v1.3.5 + libmatroska v1.4.8

Video
ID : 1
Format : AVC
Format/Info : Advanced Video Codec
Format profile : [email protected]
Format settings : CABAC / 8 Ref Frames
Format settings, CABAC : Yes
Format settings, RefFrames : 8 frames
Codec ID : V_MPEG4/ISO/AVC
Duration : 1 h 14 min
Bit rate : 1 062 kb/s
Width : 1 280 pixels
Height : 548 pixels
Display aspect ratio : 2.35:1
Frame rate mode : Constant
Frame rate : 23.976 (24000/1001) FPS
Color space : YUV
Chroma subsampling : 4:2:0
Bit depth : 8 bits
Scan type : Progressive
Bits/(Pixel*Frame) : 0.063
Stream size : 567 MiB (94%)
Writing library : x264 core 148 r2708 86b7198
Default : Yes
Forced : No
Color range : Limited
Color primaries : BT.709
Transfer characteristics : BT.709
Matrix coefficients : BT.709

Audio
ID : 2
Format : AAC
Format/Info : Advanced Audio Codec
Format profile : HE-AAC / LC
Format settings : Explicit
Codec ID : A_AAC-2
Duration : 1 h 14 min
Bit rate : 64.0 kb/s
Channel(s) : 2 channels
Channel positions : Front: L R
Sampling rate : 48.0 kHz / 24.0 kHz
Frame rate : 23.438 FPS (1024 SPF)
Compression mode : Lossy
Delay relative to video : 31 ms
Stream size : 34.2 MiB (6%)
Language : English
Default : Yes
Forced : No

Text
ID : 3
Format : UTF-8
Codec ID : S_TEXT/UTF8
Codec ID/Info : UTF-8 Plain Text
Duration : 1 h 13 min
Bit rate : 60 b/s
Count of elements : 1280
Stream size : 32.5 KiB (0%)
Default : Yes
Forced : No

[collapse]
Download Link(s)

Download

Direct download files get automatically deleted after a month or so. Posted on : 02/28/2018

[collapse]
Magnet Link

Magnet

Source : Devils.Tree.Rooted.Evil.2018.1080p.WEB-DL.AAC2.0.H264-FGT-2.44 GB

[collapse]

You may also like...

error: nah :p~