Devil’s Whisper (2017)

1h 25min | Drama, Horror, Thriller | 19 October 2017 (Indonesia)

15 year-old Alejandro Duran, who comes from a religious Latino family, aspires to one day be a Catholic priest. But when Alex discovers a mysterious box he unwittingly unleashes a demonic spirit bent on possessing him. Alex must find a way to defeat this ancient demon, which has been tormenting children since the dawn of man, before it destroys him and everyone he loves. On the surface Devil’s Whisper is a supernatural horror film about demonic possession but at its core it’s a psychological thriller about repressed memories, childhood trauma and the cycle of abuse.

Media information

General
Format : Matroska
Format version : Version 4 / Version 2
File size : 703 MiB
Duration : 1 h 25 min
Overall bit rate : 1 150 kb/s
Movie name : Devils.Whisper.2017.720p.WEB-DL
Encoded date : UTC 2017-11-14 15:43:59
Writing application : mkvmerge v17.0.0 (‘Be Ur Friend’) 32-bit
Writing library : libebml v1.3.5 + libmatroska v1.4.8

Video
ID : 2
Format : AVC
Format/Info : Advanced Video Codec
Format profile : [email protected]
Format settings : CABAC / 8 Ref Frames
Format settings, CABAC : Yes
Format settings, RefFrames : 8 frames
Codec ID : V_MPEG4/ISO/AVC
Duration : 1 h 25 min
Bit rate : 1 084 kb/s
Width : 1 280 pixels
Height : 532 pixels
Display aspect ratio : 2.40:1
Frame rate mode : Constant
Frame rate : 23.976 (24000/1001) FPS
Color space : YUV
Chroma subsampling : 4:2:0
Bit depth : 8 bits
Scan type : Progressive
Bits/(Pixel*Frame) : 0.066
Stream size : 663 MiB (94%)
Writing library : x264 core 148 r2708 86b7198
Default : Yes
Forced : No
Color range : Limited
Color primaries : BT.709
Transfer characteristics : BT.709
Matrix coefficients : BT.709

Audio
ID : 1
Format : AAC
Format/Info : Advanced Audio Codec
Format profile : HE-AACv2 / HE-AAC / LC
Format settings : NBC / Explicit
Codec ID : A_AAC-2
Duration : 1 h 25 min
Bit rate : 64.0 kb/s
Channel(s) : 2 channels / 23 channels / 23 channels
Channel positions : Front: L R / Front: 11, Side: L R, Back: 10 / Front: 11, Side: L R, Back: 10
Sampling rate : 48.0 kHz / 48.0 kHz / 24.0 kHz
Frame rate : 23.438 FPS (1024 SPF)
Compression mode : Lossy
Delay relative to video : 31 ms
Stream size : 39.1 MiB (6%)
Language : English
Default : Yes
Forced : No

Text
ID : 3
Format : UTF-8
Codec ID : S_TEXT/UTF8
Codec ID/Info : UTF-8 Plain Text
Duration : 1 h 19 min
Bit rate : 40 b/s
Count of elements : 825
Stream size : 23.8 KiB (0%)
Language : English
Default : Yes
Forced : No

[collapse]
Download Link(s)

[collapse]
Magnet Link

 

Magnet

Source : Devils.Whisper.2017.1080p.WEB-DL.DD5.1.H264-FGT-2.96 GB

[collapse]

You may also like...

error: nah :p~