Edge of Isolation (2018)

1h 29min | Drama, Horror, Thriller | 20 April 2018 (USA)

Stranded deep in the woods, a young married couple is taken in by an isolationist family, one that lives off the blood and plunder from lost hikers, and they want the couple to stay for the rest of their lives.

Watch trailer

Media information

General
Format : Matroska
Format version : Version 4 / Version 2
File size : 715 MiB
Duration : 1 h 29 min
Overall bit rate : 1 113 kb/s
Movie name : Edge.of.Isolation.2018.720p.WEB-DL.2CH.x264.AVC
Encoded date : UTC 2018-06-07 15:00:42
Writing application : mkvmerge v23.0.0 (‘The Bride Said No’) 32-bit
Writing library : libebml v1.3.6 + libmatroska v1.4.9

Video
ID : 1
Format : AVC
Format/Info : Advanced Video Codec
Format profile : [email protected]
Format settings : CABAC / 4 Ref Frames
Format settings, CABAC : Yes
Format settings, RefFrames : 4 frames
Codec ID : V_MPEG4/ISO/AVC
Duration : 1 h 29 min
Bit rate : 1 000 kb/s
Width : 1 280 pixels
Height : 544 pixels
Display aspect ratio : 2.35:1
Frame rate mode : Constant
Frame rate : 23.976 (24000/1001) FPS
Color space : YUV
Chroma subsampling : 4:2:0
Bit depth : 8 bits
Scan type : Progressive
Bits/(Pixel*Frame) : 0.060
Stream size : 632 MiB (88%)
Default : Yes
Forced : No
Color range : Limited
Color primaries : BT.709
Transfer characteristics : BT.709
Matrix coefficients : BT.709

Audio
ID : 2
Format : AAC
Format/Info : Advanced Audio Codec
Format profile : HE-AAC / LC
Format settings : NBC
Codec ID : A_AAC-5
Duration : 1 h 29 min
Bit rate : 128 kb/s
Channel(s) : 2 channels
Channel positions : Front: L R
Sampling rate : 48.0 kHz / 24.0 kHz
Frame rate : 23.438 FPS (1024 SPF)
Compression mode : Lossy
Delay relative to video : -105 ms
Stream size : 82.3 MiB (12%)
Language : English
Default : Yes
Forced : No

Text #1
ID : 3
Format : ASS
Codec ID : S_TEXT/ASS
Codec ID/Info : Advanced Sub Station Alpha
Duration : 1 h 24 min
Bit rate : 76 b/s
Count of elements : 979
Compression mode : Lossless
Stream size : 47.7 KiB (0%)
Language : English
Default : Yes
Forced : Yes

Text #2
ID : 4
Format : ASS
Codec ID : S_TEXT/ASS
Codec ID/Info : Advanced Sub Station Alpha
Duration : 1 h 27 min
Bit rate : 90 b/s
Count of elements : 1233
Compression mode : Lossless
Stream size : 58.4 KiB (0%)
Language : English
Default : No
Forced : No

[collapse]
Download Link(s)

Download

Direct download files get automatically deleted after a month or so. Posted on : 06/07/2018

[collapse]
Magnet Link

Magnet

Source : Edge.of.Isolation.2018.1080p.AMZN.WEBRip.DDP2.0.x264-NTG-3.03 GB

[collapse]

You may also like...

error: nah :p~