Espionage Tonight (2017)

Not Rated | 1h 25min | Action, Comedy | 24 October 2017 (USA)

In a reality TV show created by the U.S. government about spies, audiences go on fake undercover missions, but fact cannot be easily distinguished from fiction.

Watch trailer

Media information

General
Format : Matroska
Format version : Version 4 / Version 2
File size : 703 MiB
Duration : 1 h 26 min
Overall bit rate : 1 142 kb/s
Movie name : Espionage.Tonight.2017.720p.WEB-DL.2CH.x264.AVC
Encoded date : UTC 2018-02-01 16:07:23
Writing application : mkvmerge v20.0.0 (‘I Am The Sun’) 32-bit
Writing library : libebml v1.3.5 + libmatroska v1.4.8

Video
ID : 3
Format : AVC
Format/Info : Advanced Video Codec
Format profile : [email protected]
Format settings : CABAC / 8 Ref Frames
Format settings, CABAC : Yes
Format settings, RefFrames : 8 frames
Codec ID : V_MPEG4/ISO/AVC
Duration : 1 h 26 min
Bit rate : 1 076 kb/s
Width : 1 280 pixels
Height : 544 pixels
Display aspect ratio : 2.35:1
Frame rate mode : Constant
Frame rate : 23.976 (24000/1001) FPS
Color space : YUV
Chroma subsampling : 4:2:0
Bit depth : 8 bits
Scan type : Progressive
Bits/(Pixel*Frame) : 0.064
Stream size : 662 MiB (94%)
Writing library : x264 core 148 r2708 86b7198
Default : Yes
Forced : No
Color range : Limited
Color primaries : BT.709
Transfer characteristics : BT.709
Matrix coefficients : BT.709

Audio
ID : 2
Format : AAC
Format/Info : Advanced Audio Codec
Format profile : HE-AAC / LC
Format settings : Explicit
Codec ID : A_AAC-2
Duration : 1 h 26 min
Bit rate : 64.0 kb/s
Channel(s) : 2 channels
Channel positions : Front: L R
Sampling rate : 48.0 kHz / 24.0 kHz
Frame rate : 23.438 FPS (1024 SPF)
Compression mode : Lossy
Delay relative to video : 31 ms
Stream size : 39.4 MiB (6%)
Language : English
Default : Yes
Forced : No

Text
ID : 1
Format : UTF-8
Codec ID : S_TEXT/UTF8
Codec ID/Info : UTF-8 Plain Text
Duration : 1 h 23 min
Bit rate : 71 b/s
Count of elements : 1399
Stream size : 43.8 KiB (0%)
Language : English
Default : Yes
Forced : No

[collapse]
Download Link(s)

Download

Direct download files get automatically deleted after a month or so. Posted on : 02/01/2018

[collapse]
Magnet Link

Magnet

Source : Espionage.Tonight.2017.1080p.WEB-DL.DD5.1.H264-FGT-2.96 GB

[collapse]

You may also like...

error: nah :p~