Futureworld (1976)

PG | 1h 48min | Sci-Fi, Thriller | 13 August 1976 (USA)

Upon uncovering the dirty secret of futuristic theme-park Futureworld, an ex employee is killed after he tips-off 2 other reporters who decide to do an undercover investigation.

Watch trailer

Media information

General
Format : Matroska
Format version : Version 4 / Version 2
File size : 769 MiB
Duration : 1 h 47 min
Overall bit rate : 1 000 kb/s
Movie name : Futureworld.1976.720p.10bit.BluRay.2CH.x265.HEVC
Encoded date : UTC 2018-04-28 09:17:49
Writing application : mkvmerge v22.0.0 (‘At The End Of The World’) 32-bit
Writing library : libebml v1.3.5 + libmatroska v1.4.8

Video
ID : 1
Format : HEVC
Format/Info : High Efficiency Video Coding
Format profile : Main [email protected]@Main
Codec ID : V_MPEGH/ISO/HEVC
Duration : 1 h 47 min
Bit rate : 950 kb/s
Width : 1 280 pixels
Height : 688 pixels
Display aspect ratio : 1.85:1
Frame rate mode : Constant
Frame rate : 23.976 (24000/1001) FPS
Color space : YUV
Chroma subsampling : 4:2:0
Bit depth : 10 bits
Bits/(Pixel*Frame) : 0.045
Stream size : 730 MiB (95%)
Default : Yes
Forced : No

Audio
ID : 2
Format : AAC
Format/Info : Advanced Audio Codec
Format profile : HE-AAC / LC
Format settings : Explicit
Codec ID : A_AAC-2
Duration : 1 h 47 min
Bit rate : 48.0 kb/s
Channel(s) : 2 channels
Channel positions : Front: L R
Sampling rate : 48.0 kHz / 24.0 kHz
Frame rate : 23.438 FPS (1024 SPF)
Compression mode : Lossy
Delay relative to video : 23 ms
Stream size : 37.1 MiB (5%)
Language : English
Default : Yes
Forced : No

Text
ID : 3
Format : UTF-8
Codec ID : S_TEXT/UTF8
Codec ID/Info : UTF-8 Plain Text
Duration : 1 h 44 min
Bit rate : 55 b/s
Count of elements : 1266
Stream size : 42.5 KiB (0%)
Language : English
Default : Yes
Forced : No

[collapse]
Download Link(s)

Download

Direct download files get automatically deleted after a month or so. Posted on : 04/28/2018

[collapse]
Magnet Link

Magnet

Source : Futureworld.1976.1080p.BluRay.x264.DTS-FGT- 7.37 GB

[collapse]

You may also like...

error: nah :p~