Game of Thrones Conquest and Rebellion (2017)

HBO’s animated history of Westeros brings to life all the events that shaped the Seven Kingdoms in the thousands of years before Game of Thrones’ story begins.
The 45-minute bonus disc is a limited time DVD & Blu-ray™ exclusive gift when fans purchase Game of Thrones: The Complete Seventh Season.

Media information

General
Format : Matroska
Format version : Version 4 / Version 2
File size : 401 MiB
Duration : 44 min 47 s
Overall bit rate : 1 250 kb/s
Movie name : Game.of.Thrones.Conquest.and.Rebellion.2017.720p.BRRip
Encoded date : UTC 2017-12-14 21:11:44
Writing application : mkvmerge v18.0.0 (‘Apricity’) 32-bit
Writing library : libebml v1.3.5 + libmatroska v1.4.8

Video
ID : 2
Format : AVC
Format/Info : Advanced Video Codec
Format profile : [email protected]
Format settings : CABAC / 9 Ref Frames
Format settings, CABAC : Yes
Format settings, RefFrames : 9 frames
Codec ID : V_MPEG4/ISO/AVC
Duration : 44 min 47 s
Bit rate : 1 149 kb/s
Width : 1 280 pixels
Height : 720 pixels
Display aspect ratio : 16:9
Frame rate mode : Constant
Frame rate : 23.976 (24000/1001) FPS
Color space : YUV
Chroma subsampling : 4:2:0
Bit depth : 8 bits
Scan type : Progressive
Bits/(Pixel*Frame) : 0.052
Stream size : 368 MiB (92%)
Writing library : x264 core 133 r2334 a3ac64b
Default : Yes
Forced : No

Audio
ID : 1
Format : AAC
Format/Info : Advanced Audio Codec
Format profile : HE-AAC / LC
Format settings : Explicit
Codec ID : A_AAC-2
Duration : 44 min 47 s
Bit rate : 100.0 kb/s
Channel(s) : 2 channels
Channel positions : Front: L R
Sampling rate : 48.0 kHz / 24.0 kHz
Frame rate : 23.438 FPS (1024 SPF)
Compression mode : Lossy
Delay relative to video : 31 ms
Stream size : 32.0 MiB (8%)
Language : English
Default : Yes
Forced : No

Text #1
ID : 3
Format : UTF-8
Codec ID : S_TEXT/UTF8
Codec ID/Info : UTF-8 Plain Text
Duration : 40 min 33 s
Bit rate : 107 b/s
Count of elements : 664
Stream size : 31.9 KiB (0%)
Title : English SDH
Language : English
Default : Yes
Forced : No

Text #2
ID : 4
Format : UTF-8
Codec ID : S_TEXT/UTF8
Codec ID/Info : UTF-8 Plain Text
Duration : 41 min 11 s
Bit rate : 110 b/s
Count of elements : 667
Stream size : 33.4 KiB (0%)
Title : Polish
Language : Polish
Default : No
Forced : No

[collapse]
Download Link(s)

[collapse]
Magnet Link

Magnet

Source : Game.of.Thrones.Conquest.and.Rebellion.2017.720p.BluRay.x264-FLAME-2.22 GB

[collapse]

You may also like...

error: nah :p~