Glossary of Broken Dreams (2018)

1h 39min | Animation, Comedy, Drama | 16 March 2018 (Austria)

Puppets. Pixels. Anime. Live action. Stock footage. – Lumpennerd Johannes Grenzfurthner gives an ideotaining cinematic revue about important political concepts. Everyone is talking about freedom. Privacy. Identity. Resistance. The Market. The Left. But, yikes, Johannes can’t tolerate ignorant and topically abusive comments on the “Internet” anymore. Supported by writer Ishan Raval, in this film, Johannes explains, re-evaluates, and sometimes sacrifices political golden calves of discourse. – Not to be used with false consciousness or silicone-based lubricant.

Watch trailer

Media information

General
Format : Matroska
Format version : Version 4 / Version 2
File size : 610 MiB
Duration : 1 h 37 min
Overall bit rate : 873 kb/s
Movie name : Glossary.of.Broken.Dreams.2018.DOCU.720p.WEBRip.2CH.x265.HEVC
Encoded date : UTC 2018-05-18 08:04:31
Writing application : mkvmerge v23.0.0 (‘The Bride Said No’) 32-bit
Writing library : libebml v1.3.6 + libmatroska v1.4.9

Video
ID : 1
Format : HEVC
Format/Info : High Efficiency Video Coding
Format profile : [email protected]@Main
Codec ID : V_MPEGH/ISO/HEVC
Duration : 1 h 37 min
Bit rate : 802 kb/s
Width : 1 280 pixels
Height : 720 pixels
Display aspect ratio : 16:9
Frame rate mode : Constant
Frame rate : 25.000 FPS
Color space : YUV
Chroma subsampling : 4:2:0
Bit depth : 8 bits
Bits/(Pixel*Frame) : 0.035
Stream size : 561 MiB (92%)
Default : Yes
Forced : No

Audio
ID : 2
Format : AAC
Format/Info : Advanced Audio Codec
Format profile : HE-AAC / LC
Format settings : Explicit
Codec ID : A_AAC-2
Duration : 1 h 37 min
Bit rate : 68.3 kb/s
Channel(s) : 2 channels
Channel positions : Front: L R
Sampling rate : 48.0 kHz / 24.0 kHz
Frame rate : 23.438 FPS (1024 SPF)
Compression mode : Lossy
Delay relative to video : 23 ms
Stream size : 47.7 MiB (8%)
Language : English
Default : Yes
Forced : No

[collapse]
Download Link(s)

Download

No subs are available

Direct download files get automatically deleted after a month or so. Posted on : 05/18/2018

[collapse]
Magnet Link

Magnet

Source : Glossary.of.Broken.Dreams.2018.DOCU.1080p.WEBRip.AAC2.0.x264-NOGRP-7.02 GB

[collapse]

You may also like...

error: nah :p~