Gringo (2018)

R | 1h 51min | Action, Comedy, Crime | 9 March 2018 (USA)

GRINGO, a dark comedy mixed with white-knuckle action and dramatic intrigue, explores the battle of survival for businessman Harold Soyinka (David Oyelowo) when he finds himself crossing the line from law-abiding citizen to wanted criminal.

Watch trailer

Media information

General
Format : Matroska
Format version : Version 4 / Version 2
File size : 751 MiB
Duration : 1 h 50 min
Overall bit rate : 949 kb/s
Movie name : Gringo.2018.720p.10bit.BluRay.6CH.x265.HEVC
Encoded date : UTC 2018-06-14 10:22:59
Writing application : mkvmerge v24.0.0 (‘Beyond The Pale’) 32-bit
Writing library : libebml v1.3.6 + libmatroska v1.4.9

Video
ID : 1
Format : HEVC
Format/Info : High Efficiency Video Coding
Format profile : Main [email protected]@Main
Codec ID : V_MPEGH/ISO/HEVC
Duration : 1 h 50 min
Bit rate : 746 kb/s
Width : 1 280 pixels
Height : 536 pixels
Display aspect ratio : 2.40:1
Frame rate mode : Constant
Frame rate : 23.976 (24000/1001) FPS
Color space : YUV
Chroma subsampling : 4:2:0
Bit depth : 10 bits
Bits/(Pixel*Frame) : 0.045
Stream size : 590 MiB (79%)
Default : Yes
Forced : No

Audio
ID : 2
Format : AAC
Format/Info : Advanced Audio Codec
Format profile : HE-AAC / LC
Format settings : Explicit
Codec ID : A_AAC-2
Duration : 1 h 50 min
Bit rate : 201 kb/s
Channel(s) : 6 channels
Channel positions : Front: L C R, Side: L R, LFE
Sampling rate : 48.0 kHz / 24.0 kHz
Frame rate : 23.438 FPS (1024 SPF)
Compression mode : Lossy
Delay relative to video : 23 ms
Stream size : 159 MiB (21%)
Language : English
Default : Yes
Forced : No

Text #1
ID : 3
Format : UTF-8
Codec ID : S_TEXT/UTF8
Codec ID/Info : UTF-8 Plain Text
Duration : 1 h 41 min
Bit rate : 56 b/s
Count of elements : 1288
Stream size : 42.0 KiB (0%)
Title : ENG
Language : English
Default : Yes
Forced : No

Text #2
ID : 4
Format : UTF-8
Codec ID : S_TEXT/UTF8
Codec ID/Info : UTF-8 Plain Text
Duration : 1 h 44 min
Bit rate : 64 b/s
Count of elements : 1492
Stream size : 49.6 KiB (0%)
Title : ENG SDH
Language : English
Default : No
Forced : No

[collapse]
Download Link(s)

Download

Direct download files get automatically deleted after a month or so. Posted on : 06/14/2018

[collapse]
Magnet Link

Magnet

Source : Gringo.2018.1080p.BluRay.REMUX.AVC.DTS-HD.MA.5.1-FGT- 31.00 GB

[collapse]

Media information

General
Format : Matroska
Format version : Version 4 / Version 2
File size : 955 MiB
Duration : 1 h 50 min
Overall bit rate : 1 206 kb/s
Movie name : Gringo.2018.720p.WEB-DL.2CH.x264.AVC
Encoded date : UTC 2018-05-22 10:54:08
Writing application : mkvmerge v23.0.0 (‘The Bride Said No’) 32-bit
Writing library : libebml v1.3.6 + libmatroska v1.4.9

Video
ID : 1
Format : AVC
Format/Info : Advanced Video Codec
Format profile : [email protected]
Format settings : CABAC / 5 Ref Frames
Format settings, CABAC : Yes
Format settings, RefFrames : 5 frames
Codec ID : V_MPEG4/ISO/AVC
Duration : 1 h 50 min
Bit rate : 1 075 kb/s
Width : 1 280 pixels
Height : 532 pixels
Display aspect ratio : 2.40:1
Frame rate mode : Constant
Frame rate : 23.976 (24000/1001) FPS
Color space : YUV
Chroma subsampling : 4:2:0
Bit depth : 8 bits
Scan type : Progressive
Bits/(Pixel*Frame) : 0.066
Stream size : 851 MiB (89%)
Default : Yes
Forced : No
Color range : Limited
Color primaries : BT.709
Transfer characteristics : BT.709
Matrix coefficients : BT.709

Audio
ID : 2
Format : AAC
Format/Info : Advanced Audio Codec
Format profile : LC
Codec ID : A_AAC-2
Duration : 1 h 50 min
Bit rate : 129 kb/s
Channel(s) : 2 channels
Channel positions : Front: L R
Sampling rate : 48.0 kHz
Frame rate : 46.875 FPS (1024 SPF)
Compression mode : Lossy
Delay relative to video : 9 ms
Stream size : 102 MiB (11%)
Language : English
Default : Yes
Forced : No

Text
ID : 3
Format : UTF-8
Codec ID : S_TEXT/UTF8
Codec ID/Info : UTF-8 Plain Text
Duration : 1 h 44 min
Bit rate : 64 b/s
Count of elements : 1492
Stream size : 49.6 KiB (0%)
Default : Yes
Forced : No

[collapse]
Download Link(s)

Download

Direct download files get automatically deleted after a month or so. Posted on : 05/22/2018

[collapse]
Magnet Link

Magnet

Source : Gringo.2018.1080p.WEB-DL.DD5.1.H264-FGT-3.83 GB

[collapse]

You may also like...

error: nah :p~