Guns N’ Roses Appetite for Democracy

PG | 2h 44min | Music | 14 June 2014 (USA)

In November 2012, with a team of HD cameras rolling, the legendary, multi-platinum selling rock band Guns N’ Roses took the desert by storm, performing a blistering set at The Joint in the Hard Rock Casino in Las Vegas.

Watch trailer

Media information

General
Format : Matroska
Format version : Version 4 / Version 2
File size : 2.69 GiB
Duration : 2 h 43 min
Overall bit rate : 2 357 kb/s
Movie name : Guns.N’.Roses.Appetite.for.Democracy.2014.720p.BluRay.2CH.x265.HEVC
Encoded date : UTC 2018-06-04 16:54:15
Writing application : mkvmerge v23.0.0 (‘The Bride Said No’) 32-bit
Writing library : libebml v1.3.6 + libmatroska v1.4.9

Video
ID : 1
Format : HEVC
Format/Info : High Efficiency Video Coding
Format profile : [email protected]@Main
Codec ID : V_MPEGH/ISO/HEVC
Duration : 2 h 43 min
Bit rate : 2 259 kb/s
Width : 1 280 pixels
Height : 720 pixels
Display aspect ratio : 16:9
Frame rate mode : Constant
Frame rate : 23.976 (24000/1001) FPS
Color space : YUV
Chroma subsampling : 4:2:0
Bit depth : 8 bits
Bits/(Pixel*Frame) : 0.102
Stream size : 2.58 GiB (96%)
Default : Yes
Forced : No
Color range : Limited
Color primaries : BT.709
Transfer characteristics : BT.709
Matrix coefficients : BT.709

Audio
ID : 2
Format : AAC
Format/Info : Advanced Audio Codec
Format profile : LC
Codec ID : A_AAC-2
Duration : 2 h 43 min
Bit rate : 96.0 kb/s
Channel(s) : 2 channels
Channel positions : Front: L R
Sampling rate : 48.0 kHz
Frame rate : 46.875 FPS (1024 SPF)
Compression mode : Lossy
Stream size : 113 MiB (4%)
Title : Stereo
Language : English
Default : Yes
Forced : No

[collapse]
Download Link(s)

Part01 Part02 Part03

Direct download files get automatically deleted after a month or so. Posted on : 06/05/2018

[collapse]
Magnet Link

Magnet

Source : Guns.N’.Roses.Appetite.for.Democracy.2014.1080p.BluRay.x264.DTS-HD.MA.5.1-20.31 GB

[collapse]

You may also like...

error: nah :p~