Hooligan Escape The Russian Job (2018)

Crime | 14 May 2018 (UK)

Five British men have been arrested following some trouble with rival Russians. After being gassed and kidnapped, the group awake and realise they have been taken from their cells and are now trapped in a derelict warehouse with no way of escape. Someone is out for revenge and will stop at nothing to get it.

Watch trailer

Media information

General
Format : Matroska
Format version : Version 4 / Version 2
File size : 652 MiB
Duration : 1 h 19 min
Overall bit rate : 1 146 kb/s
Movie name : Hooligan.Escape.The.Russian.Job.2018.720p.WEB-DL.2CH.x264.AVC
Encoded date : UTC 2018-05-08 17:02:18
Writing application : mkvmerge v23.0.0 (‘The Bride Said No’) 32-bit
Writing library : libebml v1.3.6 + libmatroska v1.4.9

Video
ID : 2
Format : AVC
Format/Info : Advanced Video Codec
Format profile : [email protected]
Format settings : CABAC / 8 Ref Frames
Format settings, CABAC : Yes
Format settings, RefFrames : 8 frames
Codec ID : V_MPEG4/ISO/AVC
Duration : 1 h 19 min
Bit rate : 1 081 kb/s
Width : 1 280 pixels
Height : 546 pixels
Display aspect ratio : 2.35:1
Frame rate mode : Constant
Frame rate : 25.000 FPS
Color space : YUV
Chroma subsampling : 4:2:0
Bit depth : 8 bits
Scan type : Progressive
Bits/(Pixel*Frame) : 0.062
Stream size : 615 MiB (94%)
Default : Yes
Forced : No
Color range : Limited
Color primaries : BT.709
Transfer characteristics : BT.709
Matrix coefficients : BT.709

Audio
ID : 1
Format : AAC
Format/Info : Advanced Audio Codec
Format profile : HE-AAC / LC
Format settings : Explicit
Codec ID : A_AAC-2
Duration : 1 h 19 min
Bit rate : 64.0 kb/s
Channel(s) : 2 channels
Channel positions : Front: L R
Sampling rate : 48.0 kHz / 24.0 kHz
Frame rate : 23.438 FPS (1024 SPF)
Compression mode : Lossy
Delay relative to video : 31 ms
Stream size : 36.4 MiB (6%)
Language : English
Default : Yes
Forced : No

Text
ID : 3
Format : UTF-8
Codec ID : S_TEXT/UTF8
Codec ID/Info : UTF-8 Plain Text
Duration : 1 h 17 min
Bit rate : 47 b/s
Count of elements : 1047
Stream size : 26.8 KiB (0%)
Language : English
Default : Yes
Forced : No

[collapse]
Download Link(s)

Download

Direct download files get automatically deleted after a month or so. Posted on : 05/08/2018

[collapse]
Magnet Link

Magnet

Source : Hooligan.Escape.The.Russian.Job.2018.1080p.WEB-DL.DD5.1.H264-FGT-2.76 GB

[collapse]

You may also like...

error: nah :p~