Hostage (2005)

R | 1h 53min | Action, Crime, Drama | 11 March 2005 (USA)

When a family is held hostage, former hostage negotiator Jeff Talley arrives at the scene. Talley’s own family is kidnapped and Talley must decide which is more important: saving a family he doesn’t even know or saving his own family.

Watch trailer

Media information

General
Format : Matroska
Format version : Version 4 / Version 2
File size : 2.61 GiB
Duration : 1 h 53 min
Overall bit rate : 3 297 kb/s
Movie name : Hostage.2005.1080p.BluRay.x265.HEVC.10bit.5.1ch
Encoded date : UTC 2017-12-30 13:14:44
Writing application : mkvmerge v19.0.0 (‘Brave Captain’) 32-bit
Writing library : libebml v1.3.5 + libmatroska v1.4.8

Video
ID : 1
Format : HEVC
Format/Info : High Efficiency Video Coding
Format profile : Main [email protected]@Main
Codec ID : V_MPEGH/ISO/HEVC
Duration : 1 h 53 min
Bit rate : 2 750 kb/s
Width : 1 920 pixels
Height : 1 080 pixels
Display aspect ratio : 16:9
Frame rate mode : Constant
Frame rate : 23.976 (24000/1001) FPS
Color space : YUV
Chroma subsampling : 4:2:0
Bit depth : 10 bits
Bits/(Pixel*Frame) : 0.055
Stream size : 2.18 GiB (83%)
Writing library : x265 2.5+2-18fa144d453e:[Windows][GCC 7.1.0][64 bit] 10bit
Default : Yes
Forced : No

Audio
ID : 2
Format : AAC
Format/Info : Advanced Audio Codec
Format profile : LC
Codec ID : A_AAC-2
Duration : 1 h 53 min
Bit rate : 544 kb/s
Channel(s) : 6 channels
Channel positions : Front: L C R, Side: L R, LFE
Sampling rate : 48.0 kHz
Frame rate : 46.875 FPS (1024 SPF)
Compression mode : Lossy
Stream size : 441 MiB (17%)
Title : LC AAC 544 kbs, 6ch
Default : Yes
Forced : No

Text
ID : 3
Format : UTF-8
Codec ID : S_TEXT/UTF8
Codec ID/Info : UTF-8 Plain Text
Duration : 1 h 40 min
Bit rate : 52 b/s
Count of elements : 1082
Stream size : 38.6 KiB (0%)
Title : English
Default : No
Forced : No

[collapse]
Download Link(s)

Part02 Part03  Part04

Direct download files get automatically deleted after a month or so. Posted on : 12/30/2017

[collapse]
Magnet Link

Magnet

Source : Hostage.2005.1080p.BluRay.x264.DTS-FGT- 10.08 GB

[collapse]

Media information

General
Format : Matroska
Format version : Version 4 / Version 2
File size : 726 MiB
Duration : 1 h 53 min
Overall bit rate : 896 kb/s
Movie name : Hostage.2005.720p.bluray.x265.hevc
Encoded date : UTC 2017-12-30 17:30:59 / UTC 2017-12-29T17:32:22Z
Writing application : mkvmerge v19.0.0 (‘Brave Captain’) 32-bit
Writing library : libebml v1.3.5 + libmatroska v1.4.8 / Lavf57.7.2

Video
ID : 1
Format : HEVC
Format/Info : High Efficiency Video Coding
Format profile : [email protected]@Main
Codec ID : V_MPEGH/ISO/HEVC
Duration : 1 h 53 min
Width : 1 280 pixels
Height : 720 pixels
Display aspect ratio : 16:9
Frame rate mode : Constant
Frame rate : 23.976 (24000/1001) FPS
Color space : YUV
Chroma subsampling : 4:2:0
Bit depth : 8 bits
Writing library : x265 2.1:[Windows][GCC 5.3.1][64 bit] 8bit
Encoding settings : wpp / ctu=64 / min-cu-size=8 / max-tu-size=32 / tu-intra-depth=3 / tu-inter-depth=3 / me=3 / subme=4 / merange=57 / no-rect / no-amp / max-merge=4 / temporal-mvp / no-early-skip / rskip / rdpenalty=0 / no-tskip / no-tskip-fast / no-strong-intra-smoothing / no-lossless / no-cu-lossless / no-constrained-intra / no-fast-intra / open-gop / no-temporal-layers / interlace=0 / keyint=240 / min-keyint=24 / scenecut=40 / rc-lookahead=40 / lookahead-slices=0 / bframes=8 / bframe-bias=0 / b-adapt=2 / ref=5 / limit-refs=1 / limit-modes / weightp / weightb / aq-mode=1 / qg-size=32 / aq-strength=1.00 / cbqpoffs=0 / crqpoffs=0 / rd=6 / psy-rd=2.00 / rdoq-level=2 / psy-rdoq=1.00 / log2-max-poc-lsb=8 / no-rd-refine / signhide / deblock=0:0 / sao / no-sao-non-deblock / b-pyramid / cutree / no-intra-refresh / rc=crf / crf=24.0 / qcomp=0.60 / qpmin=0 / qpmax=69 / qpstep=4 / ipratio=1.40 / pbratio=1.30
Default : Yes
Forced : No
Color range : Limited
Color primaries : BT.709
Transfer characteristics : BT.709
Matrix coefficients : BT.709
Statistics Tags Issue : mkvmerge v19.0.0 (‘Brave Captain’) 32-bit 2017-12-30 17:30:59 / mkvmerge v19.0.0 (‘Brave Captain’) 32-bit 2017-12-30 17:30:59 / UTC 2017-12-29T17:32:22Z
FromStats_BitRate : 770608
FromStats_Duration : 01:53:12.786000000
FromStats_FrameCount : 162864
FromStats_StreamSize : 654322686

Audio
ID : 2
Format : Opus
Codec ID : A_OPUS
Duration : 1 h 53 min
Channel(s) : 2 channels
Channel positions : Front: L R
Sampling rate : 48.0 kHz
Compression mode : Lossy
Delay relative to video : -7 ms
Title : Stereo
Default : Yes
Forced : No
Statistics Tags Issue : mkvmerge v19.0.0 (‘Brave Captain’) 32-bit 2017-12-30 17:30:59 / mkvmerge v19.0.0 (‘Brave Captain’) 32-bit 2017-12-30 17:30:59 / UTC 2017-12-29T17:32:22Z
FromStats_BitRate : 123168
FromStats_Duration : 01:53:13.021000000
FromStats_FrameCount : 339651
FromStats_StreamSize : 104585966

Text
ID : 3
Format : ASS
Codec ID : S_TEXT/ASS
Codec ID/Info : Advanced Sub Station Alpha
Compression mode : Lossless
Default : Yes
Forced : Yes
Statistics Tags Issue : mkvmerge v19.0.0 (‘Brave Captain’) 32-bit 2017-12-30 17:30:59 / mkvmerge v19.0.0 (‘Brave Captain’) 32-bit 2017-12-30 17:30:59 / UTC 2017-12-29T17:32:22Z
FromStats_BitRate : 85
FromStats_Duration : 01:40:39.434000000
FromStats_FrameCount : 1082
FromStats_StreamSize : 64490

[collapse]
Download Link(s)

Download

Direct download files get automatically deleted after a month or so. Posted on : 12/30/2017

[collapse]
Magnet Link

Magnet

Source : Hostage.2005.1080p.BluRay.x264.DTS-FGT- 10.08 GB

[collapse]

You may also like...

error: nah :p~