Humor Me (2017)

1h 33min | Comedy | 12 January 2018 (USA)

A once-acclaimed New York playwright, NATE (Jemaine Clement), is struggling to finish his new play when his wife (Maria Dizzia) leaves him, taking their son. Desolate, broke and unable to pay the rent, Nate begrudgingly moves in with his widowed father, BOB (Elliott Gould), in his New Jersey retirement golf community. Bob, always quick with a joke, uses humor to deal with all of life’s challenges, even the death of his beloved wife. It drives Nate crazy. Thinking his son could benefit from some discipline, Bob sends Nate to work for ELLIS (Willie Carpenter) an older ex-Marine who runs operations at the community. While at work, Nate stumbles on a senior citizen theater troupe staging a musical. Nate agrees to help but quickly realizes it won’t be easy to get these quirky women to cooperate. And one of them, DEE (Annie Potts) even invites him to dinner to not-so-subtly set him up with her daughter, ALLISON (Ingrid Michaelson). Things reach a breaking point when a video of Nate’s earlier play surfaces, opening old wounds between him and Bob. Ultimately, the father and son realize they each have their own forms of storytelling and come to appreciate their differences.

Watch trailer

Media information

General
Format : Matroska
Format version : Version 4 / Version 2
File size : 767 MiB
Duration : 1 h 33 min
Overall bit rate : 1 148 kb/s
Movie name : Humor.Me.2017.720p.10bit.BluRay.6CH.x265.HEVC
Encoded date : UTC 2018-04-14 09:48:27
Writing application : mkvmerge v22.0.0 (‘At The End Of The World’) 32-bit
Writing library : libebml v1.3.5 + libmatroska v1.4.8

Video
ID : 1
Format : HEVC
Format/Info : High Efficiency Video Coding
Format profile : Main [email protected]@Main
Codec ID : V_MPEGH/ISO/HEVC
Duration : 1 h 33 min
Bit rate : 944 kb/s
Width : 1 280 pixels
Height : 688 pixels
Display aspect ratio : 1.85:1
Frame rate mode : Constant
Frame rate : 23.976 (24000/1001) FPS
Color space : YUV
Chroma subsampling : 4:2:0
Bit depth : 10 bits
Bits/(Pixel*Frame) : 0.045
Stream size : 631 MiB (82%)
Default : Yes
Forced : No

Audio
ID : 2
Format : AAC
Format/Info : Advanced Audio Codec
Format profile : HE-AAC / LC
Format settings : Explicit
Codec ID : A_AAC-2
Duration : 1 h 33 min
Bit rate : 202 kb/s
Channel(s) : 6 channels
Channel positions : Front: L C R, Side: L R, LFE
Sampling rate : 48.0 kHz / 24.0 kHz
Frame rate : 23.438 FPS (1024 SPF)
Compression mode : Lossy
Delay relative to video : 23 ms
Stream size : 135 MiB (18%)
Default : Yes
Forced : No

Text
ID : 3
Format : UTF-8
Codec ID : S_TEXT/UTF8
Codec ID/Info : UTF-8 Plain Text
Duration : 1 h 27 min
Bit rate : 77 b/s
Count of elements : 1614
Stream size : 50.0 KiB (0%)
Language : English
Default : Yes
Forced : No

[collapse]
Download Link(s)

Download

Direct download files get automatically deleted after a month or so. Posted on : 04/14/2018

[collapse]
Magnet Link

Magnet

Source : Humor.Me.2017.1080p.BluRay.REMUX.AVC.DTS-HD.MA.5.1-FGT-25.81 GB

[collapse]

You may also like...

error: nah :p~