Kevin James: Never Don’t Give Up (2018)

TV-PG | 1h 2min | Comedy | TV Special 24 April 2018

Kevin James is back with a new stand-up special dishing on parenting, allergies, his fans, and more.

Watch trailer

Media information

General
Format : Matroska
Format version : Version 4 / Version 2
File size : 502 MiB
Duration : 1 h 2 min
Overall bit rate : 1 130 kb/s
Movie name : Kevin.James.Never.Dont.Give.Up.2018.720p.WEB-DL.2CH.x264.AVC
Encoded date : UTC 2018-05-02 22:07:32
Writing application : mkvmerge v23.0.0 (‘The Bride Said No’) 32-bit
Writing library : libebml v1.3.6 + libmatroska v1.4.9

Video
ID : 1
Format : AVC
Format/Info : Advanced Video Codec
Format profile : [email protected]
Format settings : CABAC / 4 Ref Frames
Format settings, CABAC : Yes
Format settings, RefFrames : 4 frames
Codec ID : V_MPEG4/ISO/AVC
Duration : 1 h 2 min
Bit rate : 1 000 kb/s
Width : 1 280 pixels
Height : 720 pixels
Display aspect ratio : 16:9
Frame rate mode : Constant
Frame rate : 23.976 (24000/1001) FPS
Color space : YUV
Chroma subsampling : 4:2:0
Bit depth : 8 bits
Scan type : Progressive
Bits/(Pixel*Frame) : 0.045
Stream size : 444 MiB (88%)
Default : Yes
Forced : No
Color range : Limited
Color primaries : BT.709
Transfer characteristics : BT.709
Matrix coefficients : BT.709

Audio
ID : 2
Format : AAC
Format/Info : Advanced Audio Codec
Format profile : LC
Codec ID : A_AAC-2
Duration : 1 h 2 min
Bit rate : 128 kb/s
Channel(s) : 2 channels
Channel positions : Front: L R
Sampling rate : 48.0 kHz
Frame rate : 46.875 FPS (1024 SPF)
Compression mode : Lossy
Delay relative to video : -21 ms
Stream size : 56.9 MiB (11%)
Language : English
Default : Yes
Forced : No

Text
ID : 3
Format : UTF-8
Codec ID : S_TEXT/UTF8
Codec ID/Info : UTF-8 Plain Text
Duration : 1 h 1 min
Bit rate : 163 b/s
Count of elements : 974
Stream size : 73.3 KiB (0%)
Language : English
Default : Yes
Forced : No

[collapse]
Download Link(s)

Download

Direct download files get automatically deleted after a month or so. Posted on : 05/03/2018

[collapse]
Magnet Link

Magnet

Source : Kevin.James.Never.Dont.Give.Up.2017.1080p.WEB.x264-AMRAP-1.68 GB

[collapse]

You may also like...

error: nah :p~