Kung Fu Traveler (2017)

Action, Sci-Fi, Thriller | 1 February 2017 (China)

Aliens have invaded and overtaken the Earth. Trying to escape defeat, a Chinese General (Tiger Chen) is accidentally sent back in time while trying to devise a way to defeat the alien invaders. Stars Tiger Chen of “Man of Taichi” and “The Matrix”

Watch trailer

Media information

General
Format : Matroska
Format version : Version 4 / Version 2
File size : 802 MiB
Duration : 1 h 38 min
Overall bit rate : 1 133 kb/s
Movie name : Kung.Fu.Traveler.2017.720p.WEB-DL.2CH.x264.AVC
Encoded date : UTC 2018-04-04 11:04:03
Writing application : mkvmerge v22.0.0 (‘At The End Of The World’) 32-bit
Writing library : libebml v1.3.5 + libmatroska v1.4.8

Video
ID : 2
Format : AVC
Format/Info : Advanced Video Codec
Format profile : [email protected]
Format settings : CABAC / 8 Ref Frames
Format settings, CABAC : Yes
Format settings, RefFrames : 8 frames
Codec ID : V_MPEG4/ISO/AVC
Duration : 1 h 38 min
Bit rate : 1 068 kb/s
Width : 1 280 pixels
Height : 536 pixels
Display aspect ratio : 2.40:1
Frame rate mode : Constant
Frame rate : 23.976 (24000/1001) FPS
Color space : YUV
Chroma subsampling : 4:2:0
Bit depth : 8 bits
Scan type : Progressive
Bits/(Pixel*Frame) : 0.065
Stream size : 756 MiB (94%)
Writing library : x264 core 148 r2708 86b7198
Default : Yes
Forced : No
Color range : Limited
Color primaries : BT.709
Transfer characteristics : BT.709
Matrix coefficients : BT.709

Audio
ID : 1
Format : AAC
Format/Info : Advanced Audio Codec
Format profile : HE-AAC / LC
Format settings : Explicit
Codec ID : A_AAC-2
Duration : 1 h 38 min
Bit rate : 64.0 kb/s
Channel(s) : 2 channels
Channel positions : Front: L R
Sampling rate : 48.0 kHz / 24.0 kHz
Frame rate : 23.438 FPS (1024 SPF)
Compression mode : Lossy
Delay relative to video : 31 ms
Stream size : 45.3 MiB (6%)
Language : English
Default : Yes
Forced : No

Text
ID : 3
Format : UTF-8
Codec ID : S_TEXT/UTF8
Codec ID/Info : UTF-8 Plain Text
Duration : 1 h 34 min
Bit rate : 45 b/s
Count of elements : 882
Stream size : 31.4 KiB (0%)
Language : Chinese
Default : Yes
Forced : No

[collapse]
Download Link(s)

Download

Direct download files get automatically deleted after a month or so. Posted on : 04/04/2018

[collapse]
Magnet Link

Magnet

Source : Kung.Fu.Traveler.2017.CHINESE.1080p.AMZN.WEBRip.DDP5.1.x264-NTG-3.12 GB

[collapse]

Release Notes

Language : Chinese

Subtitles : English

[collapse]

You may also like...

error: nah :p~