Living Among Us (2018)

TV-MA | 1h 27min | Comedy, Fantasy, Horror | 2 February 2018 (USA)

Vampires have just made themselves public. Now a group of documentarians have been granted access to learn how they live and coexist with humans. But as reality sets in, the crew realize their very lives are in danger.

Watch trailer

Media information

General
Format : Matroska
Format version : Version 4 / Version 2
File size : 669 MiB
Duration : 1 h 23 min
Overall bit rate : 1 122 kb/s
Movie name : Living.Among.Us.2018.720p.WEB-DL.2CH.x264.AVC
Encoded date : UTC 2018-06-04 15:03:15
Writing application : mkvmerge v23.0.0 (‘The Bride Said No’) 32-bit
Writing library : libebml v1.3.6 + libmatroska v1.4.9

Video
ID : 1
Format : AVC
Format/Info : Advanced Video Codec
Format profile : [email protected]
Format settings : CABAC / 4 Ref Frames
Format settings, CABAC : Yes
Format settings, RefFrames : 4 frames
Codec ID : V_MPEG4/ISO/AVC
Duration : 1 h 23 min
Bit rate : 1 000 kb/s
Width : 1 280 pixels
Height : 720 pixels
Display aspect ratio : 16:9
Frame rate mode : Constant
Frame rate : 23.976 (24000/1001) FPS
Color space : YUV
Chroma subsampling : 4:2:0
Bit depth : 8 bits
Scan type : Progressive
Bits/(Pixel*Frame) : 0.045
Stream size : 591 MiB (88%)
Default : Yes
Forced : No
Color range : Limited
Color primaries : BT.709
Transfer characteristics : BT.709
Matrix coefficients : BT.709

Audio
ID : 2
Format : AAC
Format/Info : Advanced Audio Codec
Format profile : HE-AAC / LC
Format settings : NBC
Codec ID : A_AAC-5
Duration : 1 h 23 min
Bit rate : 128 kb/s
Channel(s) : 2 channels
Channel positions : Front: L R
Sampling rate : 48.0 kHz / 24.0 kHz
Frame rate : 23.438 FPS (1024 SPF)
Compression mode : Lossy
Delay relative to video : -105 ms
Stream size : 76.3 MiB (11%)
Language : English
Default : Yes
Forced : No

Text #1
ID : 3
Format : ASS
Codec ID : S_TEXT/ASS
Codec ID/Info : Advanced Sub Station Alpha
Duration : 1 h 20 min
Bit rate : 146 b/s
Count of elements : 1601
Compression mode : Lossless
Stream size : 86.5 KiB (0%)
Language : English
Default : Yes
Forced : No

Text #2
ID : 4
Format : ASS
Codec ID : S_TEXT/ASS
Codec ID/Info : Advanced Sub Station Alpha
Duration : 1 h 22 min
Bit rate : 153 b/s
Count of elements : 1673
Compression mode : Lossless
Stream size : 92.2 KiB (0%)
Language : English
Default : No
Forced : No

[collapse]
Download Link(s)

Download

Direct download files get automatically deleted after a month or so. Posted on : 06/04/2018

[collapse]
Magnet Link

Magnet

Source : Living.Among.Us.2018.1080p.AMZN.WEBRip.DDP2.0.x264-NTG-3.62 GB

[collapse]

You may also like...

error: nah :p~