Maigret in Montmartre (2017)

1h 30min | Crime, Drama, Mystery | TV Movie 24 December 2017

Maigret investigates the random murders of a Countess and a showgirl and discovers a dark secret that links their past lives at the Grand Hotel in Nice.

Watch trailer

Media information

General
Format : Matroska
Format version : Version 4 / Version 2
File size : 514 MiB
Duration : 1 h 29 min
Overall bit rate : 801 kb/s
Movie name : Maigret.in.Montmartre.2017.720p.WEB-DL.2CH.x265.HEVC
Encoded date : UTC 2018-02-21 07:24:24
Writing application : mkvmerge v20.0.0 (‘I Am The Sun’) 32-bit
Writing library : libebml v1.3.5 + libmatroska v1.4.8

Video
ID : 1
Format : HEVC
Format/Info : High Efficiency Video Coding
Format profile : [email protected]@Main
Codec ID : V_MPEGH/ISO/HEVC
Duration : 1 h 29 min
Bit rate : 734 kb/s
Width : 1 280 pixels
Height : 720 pixels
Display aspect ratio : 16:9
Frame rate mode : Constant
Frame rate : 25.000 FPS
Color space : YUV
Chroma subsampling : 4:2:0
Bit depth : 8 bits
Bits/(Pixel*Frame) : 0.032
Stream size : 471 MiB (92%)
Default : Yes
Forced : No

Audio
ID : 2
Format : AAC
Format/Info : Advanced Audio Codec
Format profile : HE-AAC / LC
Format settings : Explicit
Codec ID : A_AAC-2
Duration : 1 h 29 min
Bit rate : 64.6 kb/s
Channel(s) : 2 channels
Channel positions : Front: L R
Sampling rate : 48.0 kHz / 24.0 kHz
Frame rate : 23.438 FPS (1024 SPF)
Compression mode : Lossy
Delay relative to video : 23 ms
Stream size : 41.5 MiB (8%)
Default : Yes
Forced : No

Text
ID : 3
Format : UTF-8
Codec ID : S_TEXT/UTF8
Codec ID/Info : UTF-8 Plain Text
Duration : 5 s 0 ms
Bit rate : 65 b/s
Count of elements : 1
Stream size : 41.0 Bytes (0%)
Default : Yes
Forced : No

[collapse]
Download Link(s)

Download

Direct download files get automatically deleted after a month or so. Posted on : 02/21/2018

[collapse]
Magnet Link

Magnet

Source : Maigret.in.Montmartre.2017.1080p.WEB-DL.AAC2.0.H264-FGT-3.34 GB

[collapse]

You may also like...

error: nah :p~