Maigret: Night at the Crossroads (2017)

1h 28min | Crime, Drama, Mystery | TV Movie 16 April 2017

Maigret: Night at the Crossroads tells a complex tale of murder, deceit and greed set in an isolated country community.

Watch trailer

Media information

General
Format : Matroska
Format version : Version 4 / Version 2
File size : 621 MiB
Duration : 1 h 27 min
Overall bit rate : 989 kb/s
Movie name : Maigret.S02E01.Maigret’s.Night.at.the.Crossroads.720p.BrRip.2CH.x265.HEVC
Encoded date : UTC 2018-02-23 22:33:54
Writing application : mkvmerge v20.0.0 (‘I Am The Sun’) 32-bit
Writing library : libebml v1.3.5 + libmatroska v1.4.8

Video
ID : 1
Format : HEVC
Format/Info : High Efficiency Video Coding
Format profile : [email protected]@Main
Codec ID : V_MPEGH/ISO/HEVC
Duration : 1 h 27 min
Bit rate : 923 kb/s
Width : 1 280 pixels
Height : 720 pixels
Display aspect ratio : 16:9
Frame rate mode : Constant
Frame rate : 25.000 FPS
Color space : YUV
Chroma subsampling : 4:2:0
Bit depth : 8 bits
Bits/(Pixel*Frame) : 0.040
Stream size : 580 MiB (93%)
Default : Yes
Forced : No

Audio
ID : 2
Format : AAC
Format/Info : Advanced Audio Codec
Format profile : HE-AAC / LC
Format settings : Explicit
Codec ID : A_AAC-2
Duration : 1 h 27 min
Bit rate : 63.7 kb/s
Channel(s) : 2 channels
Channel positions : Front: L R
Sampling rate : 48.0 kHz / 24.0 kHz
Frame rate : 23.438 FPS (1024 SPF)
Compression mode : Lossy
Delay relative to video : 23 ms
Stream size : 40.0 MiB (6%)
Default : Yes
Forced : No

Text
ID : 3
Format : UTF-8
Codec ID : S_TEXT/UTF8
Codec ID/Info : UTF-8 Plain Text
Duration : 1 h 25 min
Bit rate : 70 b/s
Count of elements : 1289
Stream size : 44.4 KiB (0%)
Default : Yes
Forced : No

[collapse]
Download Link(s)

Download

Direct download files get automatically deleted after a month or so. Posted on : 02/24/2018

[collapse]
Magnet Link

Magnet

Source : Maigret.2016.S02E01.Night.at.the.Crossroads.1080p.WEB-DL.AAC2.0.H264-BTN-3.27 GB

[collapse]

You may also like...

error: nah :p~