Maya Dardel (2017)

1h 44min | Drama | 27 October 2017 (USA)

A famous writer claims on NPR that she intends to end her life and male writers may compete to become executor of her estate. Men drive up the mountain and are challenged intellectually and erotically, until one discovers Maya’s end game.

Media information

General
Format : Matroska
Format version : Version 4 / Version 2
File size : 754 MiB
Duration : 1 h 44 min
Overall bit rate : 1 006 kb/s
Movie name : Maya.Dardel.2017.720p.WEB-DL.2CH.x265.HEVC
Encoded date : UTC 2017-11-18 11:50:43
Writing application : mkvmerge v17.0.0 (‘Be Ur Friend’) 32-bit
Writing library : libebml v1.3.5 + libmatroska v1.4.8

Video
ID : 1
Format : HEVC
Format/Info : High Efficiency Video Coding
Format profile : [email protected]@Main
Codec ID : V_MPEGH/ISO/HEVC
Duration : 1 h 44 min
Bit rate : 940 kb/s
Width : 1 280 pixels
Height : 696 pixels
Display aspect ratio : 1.85:1
Frame rate mode : Constant
Frame rate : 23.976 (24000/1001) FPS
Color space : YUV
Chroma subsampling : 4:2:0
Bit depth : 8 bits
Bits/(Pixel*Frame) : 0.044
Stream size : 704 MiB (93%)
Default : Yes
Forced : No

Audio
ID : 2
Format : AAC
Format/Info : Advanced Audio Codec
Format profile : HE-AAC / LC
Format settings : Explicit
Codec ID : A_AAC-2
Duration : 1 h 44 min
Bit rate : 64.6 kb/s
Channel(s) : 2 channels
Channel positions : Front: L R
Sampling rate : 48.0 kHz / 24.0 kHz
Frame rate : 23.438 FPS (1024 SPF)
Compression mode : Lossy
Delay relative to video : 23 ms
Stream size : 48.4 MiB (6%)
Default : Yes
Forced : No

Text
ID : 3
Format : UTF-8
Codec ID : S_TEXT/UTF8
Codec ID/Info : UTF-8 Plain Text
Duration : 1 h 41 min
Bit rate : 56 b/s
Count of elements : 1341
Stream size : 42.0 KiB (0%)
Language : English
Default : Yes
Forced : No

[collapse]
Download Link(s)

[collapse]
Magnet Link

Magnet

Source : Maya.Dardel.2017.1080p.WEB-DL.DD5.1.H264-FGT-4.11 GB

[collapse]

You may also like...

error: nah :p~