Mudbound (2017)

R | 2h 14min | Drama | 17 November 2017 (USA)

Two men return home from World War II to work on a farm in rural Mississippi, where they struggle to deal with racism and adjusting to life after war.

Media information

General
Format : Matroska
Format version : Version 4 / Version 2
File size : 1.02 GiB
Duration : 2 h 15 min
Overall bit rate : 1 077 kb/s
Movie name : Mudbound.2017.720p.NF.WEB-DL
Encoded date : UTC 2017-11-17 18:36:34
Writing application : mkvmerge v17.0.0 (‘Be Ur Friend’) 32-bit
Writing library : libebml v1.3.5 + libmatroska v1.4.8

Video
ID : 2
Format : AVC
Format/Info : Advanced Video Codec
Format profile : [email protected]
Format settings : CABAC / 8 Ref Frames
Format settings, CABAC : Yes
Format settings, RefFrames : 8 frames
Codec ID : V_MPEG4/ISO/AVC
Duration : 2 h 15 min
Bit rate : 1 011 kb/s
Width : 1 280 pixels
Height : 536 pixels
Display aspect ratio : 2.40:1
Frame rate mode : Constant
Frame rate : 23.976 (24000/1001) FPS
Color space : YUV
Chroma subsampling : 4:2:0
Bit depth : 8 bits
Scan type : Progressive
Bits/(Pixel*Frame) : 0.061
Stream size : 976 MiB (94%)
Writing library : x264 core 148 r2708 86b7198
Encoding settings : cabac=1 / ref=8 / deblock=1:0:0 / analyse=0x3:0x133 / me=umh / subme=9 / psy=1 / psy_rd=1.00:0.00 / mixed_ref=1 / me_range=16 / chroma_me=1 / trellis=2 / 8x8dct=1 / cqm=0 / deadzone=21,11 / fast_pskip=1 / chroma_qp_offset=-2 / threads=17 / lookahead_threads=1 / sliced_threads=0 / nr=0 / decimate=1 / interlaced=0 / bluray_compat=0 / constrained_intra=0 / bframes=3 / b_pyramid=2 / b_adapt=2 / b_bias=0 / direct=3 / weightb=1 / open_gop=0 / weightp=2 / keyint=240 / keyint_min=24 / scenecut=40 / intra_refresh=0 / rc_lookahead=60 / rc=2pass / mbtree=1 / bitrate=1011 / ratetol=1.0 / qcomp=0.60 / qpmin=0 / qpmax=69 / qpstep=4 / cplxblur=20.0 / qblur=0.5 / vbv_maxrate=62500 / vbv_bufsize=78125 / nal_hrd=none / filler=0 / ip_ratio=1.40 / aq=1:1.00
Default : Yes
Forced : No
Color range : Limited
Color primaries : BT.709
Transfer characteristics : BT.709
Matrix coefficients : BT.709

Audio
ID : 1
Format : AAC
Format/Info : Advanced Audio Codec
Format profile : HE-AAC / LC
Format settings : Explicit
Codec ID : A_AAC-2
Duration : 2 h 15 min
Bit rate : 63.7 kb/s
Channel(s) : 2 channels
Channel positions : Front: L R
Sampling rate : 48.0 kHz / 24.0 kHz
Frame rate : 23.438 FPS (1024 SPF)
Compression mode : Lossy
Delay relative to video : 31 ms
Stream size : 61.5 MiB (6%)
Language : English
Default : Yes
Forced : No

Text #1
ID : 3
Format : UTF-8
Codec ID : S_TEXT/UTF8
Codec ID/Info : UTF-8 Plain Text
Duration : 1 s 585 ms
Bit rate : 90 b/s
Count of elements : 1
Stream size : 18.0 Bytes (0%)
Title : Forced
Language : English
Default : No
Forced : Yes

Text #2
ID : 4
Format : UTF-8
Codec ID : S_TEXT/UTF8
Codec ID/Info : UTF-8 Plain Text
Duration : 2 h 12 min
Bit rate : 62 b/s
Count of elements : 1791
Stream size : 60.2 KiB (0%)
Title : SDH
Language : English
Default : Yes
Forced : No

Text #3
ID : 5
Format : UTF-8
Codec ID : S_TEXT/UTF8
Codec ID/Info : UTF-8 Plain Text
Duration : 2 h 13 min
Bit rate : 47 b/s
Count of elements : 1374
Stream size : 46.9 KiB (0%)
Language : German
Default : No
Forced : No

Text #4
ID : 6
Format : UTF-8
Codec ID : S_TEXT/UTF8
Codec ID/Info : UTF-8 Plain Text
Duration : 2 h 13 min
Bit rate : 44 b/s
Count of elements : 1431
Stream size : 44.0 KiB (0%)
Language : Spanish
Default : No
Forced : No

Text #5
ID : 7
Format : UTF-8
Codec ID : S_TEXT/UTF8
Codec ID/Info : UTF-8 Plain Text
Duration : 2 h 13 min
Bit rate : 47 b/s
Count of elements : 1389
Stream size : 46.8 KiB (0%)
Language : French
Default : No
Forced : No

Text #6
ID : 8
Format : UTF-8
Codec ID : S_TEXT/UTF8
Codec ID/Info : UTF-8 Plain Text
Duration : 2 h 13 min
Bit rate : 42 b/s
Count of elements : 1225
Stream size : 42.0 KiB (0%)
Language : Dutch
Default : No
Forced : No

[collapse]
Download Link(s)

[collapse]
Magnet Link

Magnet

Source : Mudbound.2017.1080p.NF.WEBRip.DD5.1.x264-NTG-2.92 GB

[collapse]

You may also like...

error: nah :p~