Negative (2017)

Unrated | 1h 39min | Drama, Thriller | 19 September 2017 (USA)

After taking a picture of a woman on the street, amateur photographer Hollis is shocked when she knocks on his apartment door and threatens his life. Demanding that he and the photograph must leave town with her or she will have to kill him, Hollis reluctantly obliges. While on the run, she reveals she’s an ex-MI5 agent that double-crossed a Colombian Cartel. Just as she was about to escape for good, Hollis’ photograph of her surfaced and now the Cartel knows her whereabouts, and his.

Watch trailer

Media information

General
Format : Matroska
Format version : Version 4 / Version 2
File size : 802 MiB
Duration : 1 h 39 min
Overall bit rate : 1 131 kb/s
Movie name : Negative.2017.720p.WEB-DL.2CH.x264.AVC
Encoded date : UTC 2018-04-16 13:31:32
Writing application : mkvmerge v22.0.0 (‘At The End Of The World’) 32-bit
Writing library : libebml v1.3.5 + libmatroska v1.4.8

Video
ID : 3
Format : AVC
Format/Info : Advanced Video Codec
Format profile : [email protected]
Format settings : CABAC / 8 Ref Frames
Format settings, CABAC : Yes
Format settings, RefFrames : 8 frames
Codec ID : V_MPEG4/ISO/AVC
Duration : 1 h 39 min
Bit rate : 1 066 kb/s
Width : 1 280 pixels
Height : 542 pixels
Display aspect ratio : 2.35:1
Original display aspect ratio : 2.35:1
Frame rate mode : Constant
Frame rate : 23.976 (24000/1001) FPS
Color space : YUV
Chroma subsampling : 4:2:0
Bit depth : 8 bits
Scan type : Progressive
Bits/(Pixel*Frame) : 0.064
Stream size : 756 MiB (94%)
Default : Yes
Forced : No
Color range : Limited
Color primaries : BT.709
Transfer characteristics : BT.709
Matrix coefficients : BT.709

Audio
ID : 2
Format : AAC
Format/Info : Advanced Audio Codec
Format profile : HE-AAC / LC
Format settings : Explicit
Codec ID : A_AAC-2
Duration : 1 h 39 min
Bit rate : 64.0 kb/s
Channel(s) : 2 channels
Channel positions : Front: L R
Sampling rate : 48.0 kHz / 24.0 kHz
Frame rate : 23.438 FPS (1024 SPF)
Compression mode : Lossy
Delay relative to video : 31 ms
Stream size : 45.4 MiB (6%)
Language : English
Default : Yes
Forced : No

Text
ID : 1
Format : UTF-8
Codec ID : S_TEXT/UTF8
Codec ID/Info : UTF-8 Plain Text
Duration : 1 h 38 min
Bit rate : 51 b/s
Count of elements : 1287
Stream size : 36.9 KiB (0%)
Language : English
Default : Yes
Forced : No

[collapse]
Download Link(s)

Download

Direct download files get automatically deleted after a month or so. Posted on : 04/16/2018

[collapse]
Magnet Link

Magnet

Source : Negative.2017.1080p.AMZN.WEBRip.DDP5.1.x264-NTG-3.67 GB

[collapse]

You may also like...

error: nah :p~