Nightwish: End of an Era (2006)

Not Rated | Music | Video 31 May 2006

Live performance Finnish symphonic metal band Nightwish. Nuclear Blast recorded their live performance at the Hartwall Areena in Helsinki, Finland on October 21, 2005, the final concert of a long worldwide tour for their album Once. During the concert the band was joined on-stage by Lakota musician John Two-Hawks, who performed “Stone People” from his album Honor as an introduction to “Creek Mary’s Blood”, which featured his voice and cedar flutes. End of an Era is the final Nightwish production to feature Tarja Turunen on vocals. She left after this concert.

Watch trailer

Media information

General
Format : Matroska
Format version : Version 4 / Version 2
File size : 1 001 MiB
Duration : 1 h 43 min
Overall bit rate : 1 358 kb/s
Movie name : Nightwish.End.Of.An.Era.2005.720p.WEBRip.2CH.x264.AVC
Encoded date : UTC 2018-06-09 12:13:17
Writing application : mkvmerge v23.0.0 (‘The Bride Said No’) 32-bit
Writing library : libebml v1.3.6 + libmatroska v1.4.9

Video
ID : 1
Format : AVC
Format/Info : Advanced Video Codec
Format profile : High [email protected]
Format settings : CABAC / 9 Ref Frames
Format settings, CABAC : Yes
Format settings, RefFrames : 9 frames
Codec ID : V_MPEG4/ISO/AVC
Duration : 1 h 43 min
Bit rate : 908 kb/s
Width : 1 280 pixels
Height : 720 pixels
Display aspect ratio : 16:9
Frame rate mode : Constant
Frame rate : 24.000 FPS
Color space : YUV
Chroma subsampling : 4:2:0
Bit depth : 10 bits
Scan type : Progressive
Bits/(Pixel*Frame) : 0.041
Stream size : 669 MiB (67%)
Default : Yes
Forced : No

Audio
ID : 2
Format : AC-3
Format/Info : Audio Coding 3
Codec ID : A_AC3
Duration : 1 h 43 min
Bit rate mode : Constant
Bit rate : 448 kb/s
Channel(s) : 6 channels
Channel positions : Front: L C R, Side: L R, LFE
Sampling rate : 48.0 kHz
Frame rate : 31.250 FPS (1536 SPF)
Bit depth : 16 bits
Compression mode : Lossy
Stream size : 330 MiB (33%)
Language : Finnish
Service kind : Complete Main
Default : Yes
Forced : No

[collapse]
Download Link(s)

Download

Direct download files get automatically deleted after a month or so. Posted on : 06/09/2018

[collapse]
Magnet Link

Magnet

Nightwish – End Of An Era 720p-6.2 GB

[collapse]

You may also like...

error: nah :p~