People Are Awesome

peopleareawesome.com

Here are the very best videos we featured in 2017! Huge thanks to everyone who submitted videos, and to Thirty Seconds to Mars for the perfect soundtrack – Walk on Water!

Media information

General
Format : MPEG-4
Format profile : Base Media
Codec ID : isom (isom/iso2/avc1/mp41)
File size : 61.3 MiB
Duration : 3 min 12 s
Overall bit rate mode : Variable
Overall bit rate : 2 672 kb/s
Encoded date : UTC 2017-12-09 12:59:41
Tagged date : UTC 2017-12-09 12:59:41

Video
ID : 1
Format : AVC
Format/Info : Advanced Video Codec
Format profile : [email protected]
Format settings : CABAC / 3 Ref Frames
Format settings, CABAC : Yes
Format settings, RefFrames : 3 frames
Codec ID : avc1
Codec ID/Info : Advanced Video Coding
Duration : 3 min 12 s
Bit rate : 2 543 kb/s
Width : 1 920 pixels
Height : 1 080 pixels
Display aspect ratio : 16:9
Frame rate mode : Constant
Frame rate : 25.000 FPS
Color space : YUV
Chroma subsampling : 4:2:0
Bit depth : 8 bits
Scan type : Progressive
Bits/(Pixel*Frame) : 0.049
Stream size : 58.4 MiB (95%)
Encoded date : UTC 2017-12-09 12:59:41
Tagged date : UTC 2017-12-09 12:59:41
Color range : Limited
Color primaries : BT.709
Transfer characteristics : BT.709
Matrix coefficients : BT.709

Audio
ID : 2
Format : AAC
Format/Info : Advanced Audio Codec
Format profile : LC
Codec ID : mp4a-40-2
Duration : 3 min 12 s
Bit rate mode : Variable
Bit rate : 126 kb/s
Channel(s) : 2 channels
Channel positions : Front: L R
Sampling rate : 44.1 kHz
Frame rate : 43.066 FPS (1024 SPF)
Compression mode : Lossy
Stream size : 2.88 MiB (5%)
Default : Yes
Alternate group : 1
Encoded date : UTC 2017-12-09 04:45:45
Tagged date : UTC 2017-12-09 04:45:45

[collapse]
Download Link(s)

[collapse]
Watch on YouTube
error: nah :p~