Pirates of the Caribbean: Dead Men Tell No Tales (2017)

PG-13 | 2h 9min | Action, Adventure, Fantasy | 26 May 2017 (USA)

Captain Jack Sparrow searches for the trident of Poseidon while being pursued by an undead sea captain and his crew..

Watch trailer

Media information

General
Format : Matroska
Format version : Version 4 / Version 2
File size : 1.64 GiB
Duration : 2 h 9 min
Overall bit rate : 1 814 kb/s
Movie name : Pirates.of.the.Caribbean.Dead.Men.Tell.No.Tales.2017.720p.10bit.BluRay.6CH.x265.HEVC
Encoded date : UTC 2018-04-03 16:30:52
Writing application : mkvmerge v22.0.0 (‘At The End Of The World’) 32-bit
Writing library : libebml v1.3.5 + libmatroska v1.4.8

Video
ID : 1
Format : HEVC
Format/Info : High Efficiency Video Coding
Format profile : Main [email protected]@Main
Codec ID : V_MPEGH/ISO/HEVC
Duration : 2 h 9 min
Bit rate : 1 604 kb/s
Width : 1 280 pixels
Height : 536 pixels
Display aspect ratio : 2.40:1
Frame rate mode : Constant
Frame rate : 23.976 (24000/1001) FPS
Color space : YUV
Chroma subsampling : 4:2:0
Bit depth : 10 bits
Bits/(Pixel*Frame) : 0.098
Stream size : 1.45 GiB (88%)
Default : Yes
Forced : No

Audio
ID : 2
Format : AAC
Format/Info : Advanced Audio Codec
Format profile : HE-AAC / LC
Format settings : Explicit
Codec ID : A_AAC-2
Duration : 2 h 9 min
Bit rate : 208 kb/s
Channel(s) : 6 channels
Channel positions : Front: L C R, Side: L R, LFE
Sampling rate : 48.0 kHz / 24.0 kHz
Frame rate : 23.438 FPS (1024 SPF)
Compression mode : Lossy
Delay relative to video : 23 ms
Stream size : 192 MiB (11%)
Language : men
Default : Yes
Forced : No

Text #1
ID : 3
Format : UTF-8
Codec ID : S_TEXT/UTF8
Codec ID/Info : UTF-8 Plain Text
Duration : 1 h 55 min
Bit rate : 45 b/s
Count of elements : 1436
Stream size : 38.3 KiB (0%)
Title : ENG
Language : English
Default : Yes
Forced : No

Text #2
ID : 4
Format : UTF-8
Codec ID : S_TEXT/UTF8
Codec ID/Info : UTF-8 Plain Text
Duration : 2 h 7 min
Bit rate : 48 b/s
Count of elements : 1773
Stream size : 45.8 KiB (0%)
Title : ENG SDH
Language : English
Default : No
Forced : No

[collapse]

Download Link(s)

Part01 Part02

[RE-UP} Direct download files get automatically deleted after a month or so. Posted on : 04/03/2018

[collapse]
Magnet Link

Magnet

Source : Pirates.of.the.Caribbean.Dead.Men.Tell.No.Tales.2017.1080p.BluRay.X264-AMIABLE-10.97 GB

[collapse]

 

You may also like...

error: nah :p~