Power Rangers (2017)

PG-13 | 2h 4min | Action, Adventure, Sci-Fi | 24 March 2017 (USA)

A group of high-school students, who are infused with unique superpowers, harness their abilities in order to save the world.

Watch trailer

Media information

General
Format : Matroska
Format version : Version 4 / Version 2
File size : 1 003 MiB
Duration : 2 h 3 min
Overall bit rate : 1 131 kb/s
Movie name : Power.Rangers.2017.720p.WEB-DL.2CH.x265.HEVC
Encoded date : UTC 2018-05-12 15:15:03
Writing application : mkvmerge v23.0.0 (‘The Bride Said No’) 32-bit
Writing library : libebml v1.3.6 + libmatroska v1.4.9

Video
ID : 1
Format : HEVC
Format/Info : High Efficiency Video Coding
Format profile : [email protected]@Main
Codec ID : V_MPEGH/ISO/HEVC
Duration : 2 h 3 min
Bit rate : 1 063 kb/s
Width : 1 280 pixels
Height : 528 pixels
Display aspect ratio : 2.40:1
Frame rate mode : Constant
Frame rate : 23.976 (24000/1001) FPS
Color space : YUV
Chroma subsampling : 4:2:0
Bit depth : 8 bits
Bits/(Pixel*Frame) : 0.066
Stream size : 943 MiB (94%)
Default : Yes
Forced : No

Audio
ID : 2
Format : AAC
Format/Info : Advanced Audio Codec
Format profile : HE-AAC / LC
Format settings : Explicit
Codec ID : A_AAC-2
Duration : 2 h 3 min
Bit rate : 66.2 kb/s
Channel(s) : 2 channels
Channel positions : Front: L R
Sampling rate : 48.0 kHz / 24.0 kHz
Frame rate : 23.438 FPS (1024 SPF)
Compression mode : Lossy
Delay relative to video : 23 ms
Stream size : 58.6 MiB (6%)
Language : English
Default : Yes
Forced : No

Text
ID : 3
Format : UTF-8
Codec ID : S_TEXT/UTF8
Codec ID/Info : UTF-8 Plain Text
Duration : 1 h 52 min
Bit rate : 53 b/s
Count of elements : 1606
Stream size : 44.2 KiB (0%)
Title : ENG
Language : English
Default : Yes
Forced : No

[collapse]
Download Link(s)

Download

[RE-UP] – Direct download files get automatically deleted after a month or so. Posted on : 05/12/2018

[collapse]
Magnet Link

Magnet

Power.Rangers.2017.1080p.BluRay.x264-GECKOS-7.65 GB

[collapse]

You may also like...

error: nah :p~