Red Sparrow (2018)

R | 2h 20min | Drama, Mystery, Thriller | 2 March 2018 (USA)

Ballerina Dominika Egorova is recruited to ‘Sparrow School,’ a Russian intelligence service where she is forced to use her body as a weapon. Her first mission, targeting a C.I.A. agent, threatens to unravel the security of both nations.

Watch trailer

Media information

General
Format : Matroska
Format version : Version 4 / Version 2
File size : 918 MiB
Duration : 2 h 20 min
Overall bit rate : 916 kb/s
Movie name : Red.Sparrow.2018.720p.10bit.BluRay.6CH.x265.HEVC
Encoded date : UTC 2018-05-13 15:02:50
Writing application : mkvmerge v23.0.0 (‘The Bride Said No’) 32-bit
Writing library : libebml v1.3.6 + libmatroska v1.4.9

Video
ID : 1
Format : HEVC
Format/Info : High Efficiency Video Coding
Format profile : Main [email protected]@Main
Codec ID : V_MPEGH/ISO/HEVC
Duration : 2 h 20 min
Bit rate : 700 kb/s
Width : 1 280 pixels
Height : 536 pixels
Display aspect ratio : 2.40:1
Frame rate mode : Constant
Frame rate : 23.976 (24000/1001) FPS
Color space : YUV
Chroma subsampling : 4:2:0
Bit depth : 10 bits
Bits/(Pixel*Frame) : 0.043
Stream size : 702 MiB (76%)
Default : Yes
Forced : No

Audio
ID : 2
Format : AAC
Format/Info : Advanced Audio Codec
Format profile : HE-AAC / LC
Format settings : Explicit
Codec ID : A_AAC-2
Duration : 2 h 20 min
Bit rate : 214 kb/s
Channel(s) : 6 channels
Channel positions : Front: L C R, Side: L R, LFE
Sampling rate : 48.0 kHz / 24.0 kHz
Frame rate : 23.438 FPS (1024 SPF)
Compression mode : Lossy
Delay relative to video : 31 ms
Stream size : 215 MiB (23%)
Language : English
Default : Yes
Forced : No

Text #1
ID : 3
Format : UTF-8
Codec ID : S_TEXT/UTF8
Codec ID/Info : UTF-8 Plain Text
Duration : 2 h 12 min
Bit rate : 47 b/s
Count of elements : 1600
Stream size : 46.0 KiB (0%)
Title : ENG
Language : English
Default : Yes
Forced : No

Text #2
ID : 4
Format : UTF-8
Codec ID : S_TEXT/UTF8
Codec ID/Info : UTF-8 Plain Text
Duration : 2 h 12 min
Bit rate : 51 b/s
Count of elements : 1777
Stream size : 50.4 KiB (0%)
Title : ENG SDH
Language : English
Default : No
Forced : No

[collapse]
Download Link(s)

Download

Direct download files get automatically deleted after a month or so. Posted on : 05/13/2018

[collapse]
Magnet Link

Magnet

Source : Red.Sparrow.2018.1080p.BluRay.AVC.DTS-HD.MA.7.1-FGT-38.60 GB

[collapse]

Media information

General
Format : Matroska
Format version : Version 4 / Version 2
File size : 656 MiB
Duration : 2 h 20 min
Overall bit rate : 654 kb/s
Movie name : Red.Sparrow.2018.720p.BrRip.2CH.x265.HEVC
Encoded date : UTC 2018-05-09 15:32:27
Writing application : mkvmerge v23.0.0 (‘The Bride Said No’) 32-bit
Writing library : libebml v1.3.6 + libmatroska v1.4.9

Video
ID : 1
Format : HEVC
Format/Info : High Efficiency Video Coding
Format profile : [email protected]@Main
Codec ID : V_MPEGH/ISO/HEVC
Duration : 2 h 20 min
Bit rate : 582 kb/s
Width : 1 280 pixels
Height : 536 pixels
Display aspect ratio : 2.40:1
Frame rate mode : Constant
Frame rate : 23.976 (24000/1001) FPS
Color space : YUV
Chroma subsampling : 4:2:0
Bit depth : 8 bits
Bits/(Pixel*Frame) : 0.035
Stream size : 584 MiB (89%)
Default : Yes
Forced : No

Audio
ID : 2
Format : AAC
Format/Info : Advanced Audio Codec
Format profile : HE-AAC / LC
Format settings : Explicit
Codec ID : A_AAC-2
Duration : 2 h 20 min
Bit rate : 69.9 kb/s
Channel(s) : 2 channels
Channel positions : Front: L R
Sampling rate : 48.0 kHz / 24.0 kHz
Frame rate : 23.438 FPS (1024 SPF)
Compression mode : Lossy
Delay relative to video : 23 ms
Stream size : 70.1 MiB (11%)
Language : English
Default : Yes
Forced : No

Text #1
ID : 3
Format : UTF-8
Codec ID : S_TEXT/UTF8
Codec ID/Info : UTF-8 Plain Text
Duration : 2 h 12 min
Bit rate : 47 b/s
Count of elements : 1600
Stream size : 46.0 KiB (0%)
Title : ENG
Language : English
Default : Yes
Forced : No

Text #2
ID : 4
Format : UTF-8
Codec ID : S_TEXT/UTF8
Codec ID/Info : UTF-8 Plain Text
Duration : 2 h 12 min
Bit rate : 51 b/s
Count of elements : 1777
Stream size : 50.4 KiB (0%)
Title : ENG SDH
Language : English
Default : No
Forced : No

Text #3
ID : 5
Format : UTF-8
Codec ID : S_TEXT/UTF8
Codec ID/Info : UTF-8 Plain Text
Duration : 6 s 173 ms
Bit rate : 130 b/s
Count of elements : 2
Stream size : 101 Bytes (0%)
Title : FORCED
Language : English
Default : No
Forced : Yes

[collapse]
Download Link(s)

Download

English subs

Direct download files get automatically deleted after a month or so. Posted on : 05/09/2018

[collapse]
Magnet Link

Magnet

Source : Red.Sparrow.2018.1080p.BluRay.x264-DRONES-10.94 GB

[collapse]

You may also like...

error: nah :p~