Senna (2010)

PG-13 | 1h 46min | Documentary, Biography, Sport | 25 May 2011 (France)

A documentary on Brazilian Formula One racing driver Ayrton Senna, who won the F1 world championship three times before his death at age 34.

Details

General
Format : Matroska
Format version : Version 4 / Version 2
File size : 953 MiB
Duration : 1 h 45 min
Overall bit rate : 1 260 kb/s
Movie name : Ayrton.Senna.Beyond.the.Speed.of.Sound.2010.720p
Encoded date : UTC 2017-10-01 12:32:08
Writing application : mkvmerge v16.0.0 (‘Protest’) 32-bit
Writing library : libebml v1.3.5 + libmatroska v1.4.8

Video
ID : 2
Format : AVC
Format/Info : Advanced Video Codec
Format profile : [email protected]
Format settings : CABAC / 9 Ref Frames
Format settings, CABAC : Yes
Format settings, RefFrames : 9 frames
Codec ID : V_MPEG4/ISO/AVC
Duration : 1 h 45 min
Bit rate : 1 158 kb/s
Width : 1 280 pixels
Height : 720 pixels
Display aspect ratio : 16:9
Frame rate mode : Constant
Frame rate : 23.976 (24000/1001) FPS
Color space : YUV
Chroma subsampling : 4:2:0
Bit depth : 8 bits
Scan type : Progressive
Bits/(Pixel*Frame) : 0.052
Stream size : 875 MiB (92%)
Writing library : x264 core 133 r2334 a3ac64b
Default : Yes
Forced : No

Audio
ID : 1
Format : AAC
Format/Info : Advanced Audio Codec
Format profile : HE-AAC / LC
Format settings : Explicit
Codec ID : A_AAC-2
Duration : 1 h 45 min
Bit rate : 100.0 kb/s
Channel(s) : 2 channels
Channel positions : Front: L R
Sampling rate : 48.0 kHz / 24.0 kHz
Frame rate : 23.438 FPS (1024 SPF)
Compression mode : Lossy
Delay relative to video : 31 ms
Stream size : 75.6 MiB (8%)
Language : English
Default : Yes
Forced : No

Text #1
ID : 3
Format : UTF-8
Codec ID : S_TEXT/UTF8
Codec ID/Info : UTF-8 Plain Text
Duration : 1 h 40 min
Bit rate : 60 b/s
Count of elements : 1102
Stream size : 44.9 KiB (0%)
Language : English
Default : Yes
Forced : No

[collapse]
Download

[collapse]
Magnet Link

Magnet

Ayrton Senna Beyond the Speed of Sound (2010) 720p BRRip

[collapse]

You may also like...

error: nah :p~